<?xml version="1.0" standalone="no"?>
<!DOCTYPE svg PUBLIC "-//W3C//DTD SVG 1.1//EN" "http://www.w3.org/Graphics/SVG/1.1/DTD/svg11.dtd" >
<svg xmlns="http://www.w3.org/2000/svg">
<metadata></metadata>
<defs>
<font id="pr8_charaderegular" horiz-adv-x="1267" >
<font-face units-per-em="2048" ascent="1638" descent="-410" />
<missing-glyph horiz-adv-x="528" />
<glyph horiz-adv-x="2048" />
<glyph horiz-adv-x="2048" />
<glyph horiz-adv-x="682" />
<glyph horiz-adv-x="751" d="M383 1073q4 27 16.5 39t28.5 18q20 2 25 -14q4 -10 5 -18t3 -19q4 -8 6 -16t6 -19q14 -51 88 -51q63 0 121 60q2 2 7 10t16 18q8 10 13 17.5t13 17.5q6 10 17.5 11t21.5 -5q18 -12 12 -49q-6 -43 -30.5 -85t-59.5 -74.5t-78 -53t-88 -20.5q-184 0 -143 233z" />
<glyph horiz-adv-x="563" d="M381 911q18 96 113 97q87 0 67 -115q-14 -94 -115 -94q-86 0 -65 112z" />
<glyph horiz-adv-x="602" d="M268 838q8 47 34 89t62.5 73.5t82 50t92.5 18.5q82 0 129.5 -56.5t31.5 -142.5q-8 -45 -32.5 -87t-61.5 -73.5t-82 -50t-92 -18.5q-41 0 -74.5 15.5t-56 42t-32 62.5t-1.5 77zM401 844q-4 -31 14.5 -51.5t47.5 -20.5q37 0 68.5 27.5t37.5 64.5q4 31 -14 51.5t-47 20.5 q-39 0 -69.5 -26.5t-37.5 -65.5z" />
<glyph unicode="&#xa;" horiz-adv-x="831" d="M297 774q0 2 14.5 37t42.5 98q29 63 43.5 99t20.5 45l-4 -4q43 53 112 53q78 -1 68 -60q-6 -35 -123 -170q-115 -139 -143 -139q-16 0 -25.5 9.5t-5.5 31.5zM592 774q4 10 10 23q8 20 25 55q4 14 10 27.5t12 29.5q29 66 43.5 100.5t22.5 43.5q16 23 40.5 36t65.5 13 q80 -1 70 -60q-6 -31 -123 -170q-115 -139 -145 -139q-37 0 -31 41z" />
<glyph horiz-adv-x="751" d="M51 -242q6 35 29.5 85.5t62.5 109.5q47 70 88 106.5t80 36.5l25 -12q12 -4 14 -15.5t-10 -21.5q-127 -127 -145 -242q-4 -27 -3 -53t11 -55q18 -53 61 -53t72 22q4 2 11 4t11 2q37 -6 31 -45q-8 -47 -78 -82v2q-66 -35 -100 -34q-47 0 -81 19t-56 65q-37 74 -23 161z" />
<glyph horiz-adv-x="548" d="M227 971q6 45 70 45q63 0 90 -107q4 -18 8 -37.5t8 -40.5q2 -6 3 -6q0 2 -2 4l-1 2q0 2 3 -4l7 10.5t5 8.5q12 16 23.5 30.5t21.5 30.5q78 109 121 109q70 0 57 -70l-184 -233q-47 -59 -90 -60q-16 0 -29.5 21.5t-24.5 58.5q-6 14 -10 45q-2 20 -10 43q0 4 -33 68 q-16 33 -25.5 52.5t-7.5 29.5z" />
<glyph unicode="&#xd;" horiz-adv-x="468" d="M-39 186q6 29 98 105q25 20 49.5 44.5t41.5 47.5q2 2 17 27.5t48 81.5q20 35 47 34q82 0 70 -71q-4 -23 -13.5 -53.5t-25.5 -73.5q-12 -41 -21.5 -70t-11.5 -45q-16 -86 45 -86q55 0 119 82q47 53 69.5 79.5t34.5 26.5q68 1 54 -69q-8 -63 -125 -162q-119 -96 -183 -96 q-164 0 -139 221q-4 -6 -13 -14.5t-20 -18.5q-59 -66 -96 -65q-57 0 -45 75z" />
<glyph horiz-adv-x="806" d="M-119 -143q12 31 171 248t470 628q305 399 485.5 631.5t239.5 298.5t121 66q63 -1 55 -50q0 -10 -10 -22q-41 -66 -98.5 -143.5t-134.5 -174.5q-33 -39 -63 -76.5t-62 -78.5q-29 -37 -60.5 -75t-62.5 -75q-143 -186 -290.5 -379.5t-293.5 -392.5q-35 -41 -83 -105.5 t-113 -154.5v2q-10 -16 -24.5 -36.5t-33.5 -45.5v2q-14 -23 -26 -37q-72 -72 -168 -69l-13 18q-4 4 -5 10.5t-1 10.5z" />
<glyph horiz-adv-x="1261" d="M14 662q4 27 21.5 38t42.5 11q106 0 201 139q29 51 80 162.5t112 269.5q16 47 32.5 87t31.5 67q23 51 43 92t36 55q10 8 20.5 13.5t20.5 5.5q41 0 54.5 -35t1.5 -113q-16 -92 -45 -176t-72 -160l-92 -147q-23 -37 -46.5 -76t-45.5 -74q-8 -14 -25.5 -67.5t-48.5 -161.5 h14q39 0 85 13t106 38q125 55 170 55q68 0 53 -92q-4 -29 -38 -45t-95 -31q-25 -6 -39 -7t-21 -1q-6 0 -7 -1t-1 -5q12 -4 17 -10q133 -82 188 -250q25 18 52.5 44t49.5 56q27 35 52.5 70t52.5 70q10 16 22.5 23t22.5 7q78 0 65 -69q-4 -27 -15 -58.5t-28 -76.5 q-29 -82 -34 -121q-16 -74 12 -74q25 0 60.5 22.5t76.5 61.5q51 53 83 78.5t40 25.5q67 1 53 -69q-10 -63 -129 -162q-61 -47 -107 -71.5t-81 -24.5q-74 0 -108 46t-21 116q2 10 6 22t8 23v2q-12 -4 -41 -27q-16 -10 -33.5 -24.5t-23.5 -18.5q6 -49 4 -101.5t-12 -107.5 q-37 -205 -154 -371q-154 -207 -342 -206q-190 0 -244 278q-12 94 -11 197.5t24 220.5q4 25 30.5 122t75.5 271q-10 -2 -22 -2h-25q-117 0 -102 88q8 43 59 62.5t139 19.5q4 18 6 31.5t7 29.5q-4 -6 -13.5 -12t-23.5 -16q-35 -23 -64 -36t-57 -13q-29 0 -49.5 25.5 t-14.5 54.5zM174 -183.5q-2 -80.5 8 -148.5q31 -188 142 -188q66 0 127 48t114 138q39 70 70 153t45 167q27 162 -72 311q-96 147 -248 147h-34t-33 -2q-31 -121 -57.5 -237.5t-47.5 -229.5q-12 -78 -14 -158.5zM1006 692q14 92 77 92q80 1 62 -108q-14 -88 -78 -88 q-80 0 -61 104z" />
<glyph horiz-adv-x="1384" d="M14 659q10 51 68 52q109 0 201 139q35 51 84 162.5t114 269.5q63 158 111.5 239t77.5 81q78 0 51 -140q-16 -98 -45 -184t-76 -160q-49 -74 -92 -147q-27 -39 -51.5 -76t-46.5 -74l2 2q-6 -16 -26.5 -76.5t-49.5 -154.5h14q39 0 85 13t106 38q119 55 172 55q68 0 53 -92 q-4 -29 -39 -45t-94 -31q-57 -10 -74 -14q6 -4 10 -6t11 -6q39 -27 77.5 -68t75.5 -100q6 -12 12 -19l7 -6q2 0 10 12.5t24 32.5q0 39 4.5 78t12.5 82q41 225 147 506q76 205 153 305t148 100q61 0 86 -114q6 -43 7.5 -82t-3.5 -72q-16 -84 -58 -193.5t-116 -244.5 q-66 -119 -129 -221.5t-127 -190.5q4 -72 37 -121q49 -61 115 -61q94 0 203 78q129 82 139 82q57 0 45 -74q-4 -14 -14.5 -31.5t-26.5 -38.5q-84 -82 -177 -125t-202 -43q-174 0 -227 209q-6 -6 -5 -8t1 -6q-6 -37 -6 -119q2 -39 -1.5 -70.5t-7.5 -52.5q-16 -102 -57 -196 t-100 -178q-154 -213 -344 -213q-184 0 -234 251v-2q-20 86 -19 182.5t17 200.5q10 55 42 169t83 288q-12 -2 -22 -2h-23q-119 0 -104 88q4 27 24.5 41t54.5 25h-22q-31 0 -50.5 24.5t-15.5 52.5zM117 588q23 4 50.5 7t55.5 3l7 31.5t8 29.5q-8 -6 -16.5 -12t-18.5 -16 q-23 -16 -44.5 -27.5t-41.5 -15.5zM172 -336q27 -184 139 -184q127 0 228 164q41 72 69.5 143.5t42.5 151.5q16 94 5 178t-46 162q-47 80 -110.5 122.5t-151.5 42.5h-26t-29 -2q-41 -133 -68.5 -250.5t-46.5 -226.5q-29 -156 -4 -301h-2zM956 612q115 186 183 331.5 t86 256.5q8 45 -8 66q-63 -18 -168 -336q-20 -61 -34 -101.5t-23 -73t-17 -64.5t-19 -79z" />
<glyph horiz-adv-x="1302" d="M98 580q8 63 74 63q135 0 180 -53q10 -20 20.5 -39t24.5 -39q39 -33 160 -33q76 0 152.5 23.5t148.5 64.5q53 205 83 325t42 163q135 397 293 397q86 0 119 -113q27 -86 12 -172q-35 -199 -140.5 -360.5t-291.5 -288.5q-10 -51 -18.5 -87t-18.5 -77q49 8 97 11.5t89 3.5 q152 0 140 -78q-6 -41 -72 -80q-51 -39 -90 -39q-33 0 -25 51h-12q-35 0 -77 -3t-93 -11q-25 -82 -46.5 -141.5t-47.5 -114.5h114q248 2 452 -28.5t349 -84.5q92 -39 84 -96q-4 -27 -34.5 -49.5t-79.5 -40.5q-35 -16 -69 -25.5t-50 -9.5q-29 0 -50.5 24.5t-17.5 53.5 q4 23 19.5 33t31.5 16q-10 0 -18 4q-158 29 -286 46.5t-214 17.5h-158t-147 -2q-150 -240 -352 -240q-106 0 -170 35q-96 49 -78 147q14 86 144 135.5t374 61.5q25 43 48.5 97t47.5 128q-47 -12 -100 -32.5t-115 -49.5q-20 2 -36.5 16.5t-32.5 36.5q-29 49 -23 84 q8 45 180 74q49 8 90 13.5t89 13.5q4 18 9 35.5t13 38.5q2 6 1 3t3 11q-82 -41 -159.5 -59.5t-149.5 -18.5q-53 0 -116.5 16.5t-135.5 44.5q-84 39 -127 84t-33 93zM301 -250q-2 -24 64 -24q61 0 102 17t80 62q-238 -10 -246 -55zM1018 700q78 78 153 201q45 78 74 145.5 t41 133.5q4 20 4 41q0 23 -2 45v-2q-10 47 -18 47q-76 0 -168 -287q-10 -33 -31.5 -113t-52.5 -211zM1563 -250v-4q2 0 2 -2q0 6 -2 6z" />
<glyph horiz-adv-x="1130" d="M84 422q6 35 174 135q45 23 94 55q27 14 45.5 24.5t44.5 25.5q199 508 435 778l28 12q43 -6 66 -59q27 -57 20 -86q-4 -31 -49 -62q-18 -10 -27.5 -17t-13.5 -9q-45 -49 -131 -226q-14 -31 -24.5 -53t-20.5 -42.5t-20.5 -43.5t-24.5 -55q80 43 134 65.5t73 22.5 q35 0 49 -47q0 -10 1 -19.5t-3 -21.5q-6 -39 -35 -65.5t-63 -43.5q-59 -20 -128 -48t-126 -62q-33 -78 -50.5 -135.5t-27.5 -102.5q-14 -88 43 -158t145 -69q111 0 279 84q176 88 194 88q61 0 49 -70q-4 -16 -22 -38.5t-43 -41.5q-111 -76 -238 -119t-262 -43 q-162 0 -248 125q-74 111 -43 283q2 12 2 14q0 4 -1 6.5t0 6.5t8 20q-76 -55 -122 -85t-55 -30q-18 0 -37.5 10.5t-36 27t-25.5 35t-7 34.5z" />
<glyph horiz-adv-x="1255" d="M117 -109q20 119 213 345q45 53 79.5 93t57.5 68q27 31 45 54q0 6 -8 6q-4 0 -10 -2q-4 -2 -11.5 -4t-11.5 -5q-14 -4 -27.5 -8t-17.5 -4q-35 0 -51 58q-10 20 -10 38t2 33q10 59 135 60q8 0 22.5 -2.5t26.5 -2.5q16 -2 33 -2h26q20 0 33.5 1t25 4.5t20.5 10.5t26 21 q43 41 99 99.5t126 136.5q68 74 111 127t59 82q-23 -4 -41 -4h-37q-90 0 -233 65q-70 31 -122 46.5t-93 15.5q-18 0 -43 -9.5t-62 -27.5q-72 -39 -110 -39q-39 0 -45 80v41q0 20 4 37q10 63 88 63q66 0 154.5 -17.5t203.5 -50.5q111 -35 196 -51t144 -16q45 0 86 11t76 36 q20 12 46 35.5t52 54.5q29 33 48.5 46t33.5 13q86 0 68 -96q-4 -31 -62 -80q-10 -6 -18 -11t-14 -11q-18 -18 -39 -29q-35 -31 -83 -77t-96 -95q-47 -49 -92 -97t-92 -95q-31 -29 -72 -75t-96 -106l-33 -30v-2l2 2q14 0 40 1t53 3q29 2 55.5 5t42.5 3q217 0 201 -86 q-6 -47 -93 -80q-53 -25 -96 -29q-12 0 -16 9l-12 8q0 4 -1.5 10t-1.5 10l9 15q-12 6 -38 8t-54 2q-98 0 -168 -12q-20 -4 -39 -14.5t-33 -24.5q-43 -45 -89 -98.5t-97 -112.5q-53 -66 -87 -114t-49 -77q10 2 29 2q129 0 428 -227q274 -219 346 -219q29 0 59.5 11t69.5 38 q10 6 30.5 9t45.5 3q-16 4 -12 25.5t24 21.5q18 0 38 -8t35 -22.5t23.5 -33t6.5 -36.5q-6 -33 -35 -60.5t-72 -48.5q-78 -39 -139 -38q-160 0 -356 116q-74 53 -149 108.5t-153 108.5l-2 -2q-166 113 -272 113q-20 0 -45 -57q-41 -96 -88 -97q-72 0 -51 133zM899 1704 q6 45 70 45q63 0 90 -107q4 -18 8 -37.5t8 -40.5q2 -6 3 -6q0 2 -2 4l-1 2q0 2 3 -4l7 10.5t5 8.5q12 16 23.5 30.5t21.5 30.5q78 109 121 109q70 0 57 -70l-184 -233q-47 -59 -90 -60q-16 0 -29.5 21.5t-24.5 58.5q-6 14 -10 45q-2 20 -10 43q0 4 -33 68q-16 33 -25.5 52.5 t-7.5 29.5z" />
<glyph horiz-adv-x="514" d="M-164 -428q18 100 66 182q74 115 170 115q133 0 118 -86q-10 -57 -75 -57h-15q-8 0 -14 2q-6 0 -8 1t-6 1q-35 0 -64 -47v2q-10 -23 -19 -48.5t-14 -50.5q-10 -68 16.5 -116t90.5 -48q96 0 186 103q76 100 94 213q14 88 -14 172q-35 86 -115 86q-2 0 -14 -2t-20 -4 q-20 -4 -31 -4q-35 0 -54.5 26.5t-13.5 59.5q10 68 136 186q39 35 65.5 62.5t40.5 48.5q-16 -10 -34.5 -18.5t-39.5 -8.5q-10 0 -23.5 1t-23.5 3q-12 2 -25.5 4t-17.5 2q-6 0 -33 -67v2q-20 -51 -43.5 -76t-46.5 -25q-68 0 -61 47q2 16 43 82q16 29 24.5 50.5t12.5 35.5 q-2 6 -2 15q-2 6 -2 12q0 8 -2 16v-2q-4 25 0 50q6 45 45 45q14 0 37.5 -9.5t50.5 -19.5q23 -6 41 -12.5t34 -6.5q12 0 29 5.5t33 21.5q49 37 78 37q16 0 32.5 -15.5t34.5 -41.5q37 -43 31 -76q-8 -47 -139 -172q-115 -106 -121 -135q2 2 31 0q12 -4 20 -6.5t23 -6.5 q113 -39 155 -145q33 -96 15 -211q-14 -78 -56.5 -158t-105.5 -151q-74 -78 -152 -120t-161 -42q-106 0 -164 100q-41 92 -23 199zM178 971q6 45 70 45q63 0 90 -107q4 -18 8 -37.5t8 -40.5q2 -6 3 -6q0 2 -2 4l-1 2q0 2 3 -4l7 10.5t5 8.5q12 16 23.5 30.5t21.5 30.5 q78 109 121 109q70 0 57 -70l-184 -233q-47 -59 -90 -60q-16 0 -29.5 21.5t-24.5 58.5q-6 14 -10 45q-2 20 -10 43q0 4 -33 68q-16 33 -25.5 52.5t-7.5 29.5z" />
<glyph unicode=" "  horiz-adv-x="528" />
<glyph unicode="&#x09;" horiz-adv-x="528" />
<glyph unicode="&#xa0;" horiz-adv-x="528" />
<glyph unicode="!" horiz-adv-x="696" d="M328 348q-12 35 6 146q12 66 35.5 168t54.5 233q33 133 55.5 230.5t34.5 162.5q4 16 4 41t4 55q2 25 3 53.5t5 47.5q18 98 93 98q121 0 96 -153q-12 -68 -39 -167.5t-70 -230.5q-82 -266 -102 -391q-23 -129 -6 -160q4 -4 14 -9t27 -9v2q38 -13 26 -76q-8 -47 -46 -87 t-85 -40q-78 0 -110 86zM336 90q18 111 102 111q18 0 32.5 -14.5t24 -35t11.5 -45.5t0 -43q-18 -104 -96 -104q-94 0 -74 131z" />
<glyph unicode="&#x22;" horiz-adv-x="983" d="M451 930q-27 51 36 424q4 27 20.5 53.5t40 47t51.5 33.5t56 13q4 0 8.5 -2t8.5 -4l6 -12q4 -16 3 -25.5t-3 -19.5q-8 -49 -26.5 -118t-47.5 -155q-78 -238 -131 -245q-14 -4 -22 10zM731 1059q10 104 43 291q4 25 21.5 52.5t40 49t50 35.5t52.5 14q39 0 31 -47 q-10 -53 -26.5 -122.5t-43.5 -160.5q-80 -242 -139 -251q-16 0 -23 10q-16 25 -6 129z" />
<glyph unicode="#" horiz-adv-x="1595" d="M104 47q2 4 79 99.5t225 275.5h-273q-16 0 -24.5 10t-6.5 27q4 20 20.5 39.5t38 35t46 24.5t45.5 9h274q14 0 39 27q33 37 62.5 72.5t62.5 70.5q92 111 94 119q0 2 -24 2h-131q-37 -2 -74 -2h-57q-18 0 -29.5 9t-7.5 30q10 41 72 78q57 31 96 31h266q31 0 98 86 q72 88 110 134t42 52q104 109 201 108l8 -4q23 0 16 -24q-2 -10 -7 -18.5t-9 -12.5q-12 -23 -46 -62.5t-93 -103.5q-125 -129 -130 -153q0 -2 19 -2h190q29 0 99 81h-2q119 156 145 183q115 109 211 110l10 -4q12 0 18.5 -9t-1.5 -24q-27 -49 -164 -186q-117 -123 -121 -149 q-2 -8 108 -9h27q18 0 41 2q23 4 45.5 5.5t36.5 1.5q27 0 36 -12.5t5 -30.5q-2 -16 -15.5 -34t-32 -34t-36.5 -26.5t-33 -10.5h-301q-8 0 -127 -131q-121 -131 -125 -154q0 -6 19 -6h61q37 0 86 2h144q10 0 16 -6l12 -6q2 -2 2 -10v-10q-8 -31 -76 -72q-27 -20 -51 -31.5 t-41 -11.5h-284q-35 0 -170 -180q-78 -102 -128.5 -153.5t-84.5 -51.5q-6 0 -19.5 -3t-30.5 -11q-6 -4 -13 -5.5t-13 -3.5q-8 -2 -14 -2q-10 0 -15 8l-10 7q-4 6 -4 20q4 10 44 57.5t114 124.5q66 74 104.5 122t42.5 69q0 6 -12 6l-199 -4q-18 0 -41 -29h2 q-45 -55 -115.5 -137t-164.5 -190q-51 -53 -134 -54q-47 0 -43 35zM713 567q-6 -6 12 -2h190q31 0 66 47l117 127q78 86 84 113q0 8 -25 4h-160q-31 0 -44 -8t-38 -37q-43 -49 -85 -96t-85 -97q-4 -4 -8 -11t-8 -13l2 4q-6 -8 -12 -17.5t-6 -13.5z" />
<glyph unicode="$" horiz-adv-x="1720" d="M90 -422q4 23 25.5 44.5t60.5 43.5q37 20 65.5 28.5t49.5 8.5q47 0 45 -49q0 -8 4 -8q86 0 358 108q35 16 45 33q-4 -4 0 18q2 8 5.5 16.5t5.5 18.5q4 23 13 69t24 111q2 16 10 39q10 41 16 75t10 63l2 12q-29 0 -114 -23q-80 -23 -127 -22q-262 0 -230 192q12 78 74 166 t166 187q51 47 137 116.5t197 149.5q53 35 76 102l24 144q33 203 101 202q59 0 34 -149q-4 -12 -7 -30.5t-7 -39.5q-6 -20 -9 -36.5t-5 -26.5q-6 -43 -13 -45q6 0 127 57h-2q131 61 209 61q31 0 58.5 -15t48 -39.5t31 -55.5t4.5 -62q-12 -59 -80 -153q-29 -43 -43.5 -66.5 t-14.5 -31.5q0 4 4.5 -0.5l8.5 -8.5q8 -12 16 -23t6 -24q-4 -20 -22.5 -43.5t-46.5 -52.5q-68 -61 -105 -61q-70 0 -53 86q12 66 94 196q82 121 88 164q4 23 -4 38t-27 15q-59 0 -252 -121q-80 -49 -98 -120q-14 -66 -28.5 -142t-28.5 -141q-2 -10 -4 -25.5t-6 -25.5 q-4 -16 -7.5 -31.5t-5.5 -26.5q-4 -27 13 -26q10 0 29.5 1t41.5 3q10 2 24.5 3t27 2t20.5 2l8 1q287 -2 244 -258q-14 -78 -67.5 -154.5t-131.5 -142.5q-41 -33 -126 -85t-183 -105q-23 -14 -40 -32t-24 -34q-4 -10 -9 -35.5t-11 -64.5q-43 -236 -111 -236q-59 0 -41 92 q2 14 7.5 40t11.5 44q4 18 8 43t6 35q8 49 -2 49q-8 0 -53 -14t-125 -43q-84 -31 -153.5 -48.5t-116.5 -17.5q-45 0 -97 23q-66 35 -53 92zM502 348q-6 -45 63 -45q53 0 154 39q131 47 135 51q16 14 39 135q14 70 32.5 121t34 85t25.5 50l10 17h-47q6 23 6 22q-27 0 -86 -51 t-157 -154q-102 -106 -153.5 -173.5t-55.5 -96.5zM868 -172l13 8q90 51 147 89t84 61q134 104 148 198q10 47 -24 74t-89 27q-193 0 -205 -90l-14 -80q-2 -20 -7.5 -46t-13.5 -59l-4 -22q-2 -16 -5 -28.5t-5 -25.5q-8 -25 -11 -43t-5 -28q-4 -14 -6.5 -22.5t-2.5 -12.5z" />
<glyph unicode="%" horiz-adv-x="1126" d="M10 -279q4 16 102.5 194.5t290.5 506.5q55 98 116 196.5t116 196.5q59 98 115.5 194.5t117.5 196.5q41 72 67 120t42 77q-41 -23 -99.5 -46.5t-129.5 -41.5q-31 -14 -33 -23v-14l-4 -25q-18 -113 -74 -204q-78 -131 -182 -131q-109 0 -156 110q-20 41 -23.5 93.5 t7.5 107.5q18 106 77 201q72 133 181 133q35 0 63.5 -18.5t50.5 -47.5q18 -23 31.5 -37t18.5 -14q61 0 221 82q82 47 132 69.5t60 22.5q33 0 52.5 -26.5t15.5 -55.5l-123 -235q-27 -41 -52.5 -81t-54.5 -79q-8 -12 -15 -25.5t-15 -25.5q-242 -399 -421 -712.5t-302 -549.5 q-51 -100 -86 -149.5t-51 -49.5q-33 0 -46.5 33t-9.5 57zM410 1116q4 -35 17 -54.5t34 -19.5q43 0 82 66q29 55 41 125q12 63 0 129q-6 37 -16.5 55.5t-32.5 18.5q-47 0 -80 -68q-31 -57 -43 -123q-12 -70 -2 -129zM630 204q-5 50 5 105q10 53 28.5 105.5t49.5 99.5 q78 129 182 129q113 0 156 -115q18 -45 21 -97t-7 -107q-10 -51 -28.5 -100.5t-47.5 -96.5q-78 -127 -178 -127q-113 0 -158 111q-18 43 -23 93zM762 199q14 -74 53 -74q45 0 82 68q12 23 23.5 55t17.5 67q12 63 0 129q-12 74 -49 74q-43 0 -82 -65q-29 -55 -41 -125 q-12 -76 -4 -129zM989 1427l2 -2l2 2h-4z" />
<glyph unicode="&#x26;" horiz-adv-x="1280" d="M164 180q10 57 39.5 122t85.5 140q29 39 78 97.5t116 136.5q94 109 97 123q2 6 -11.5 39.5t-40.5 99.5q-29 72 -39 129t-4 98q23 123 156 197q109 59 231 59q47 0 89.5 -9t72.5 -28q39 -27 58.5 -63.5t9.5 -83.5q-10 -59 -55.5 -129t-128.5 -158q-154 -158 -158 -176 q-2 -12 23.5 -70.5t80.5 -162.5q16 -35 37 -68t37 -67q16 -35 31.5 -64t34.5 -59q39 -78 40 -78q6 0 29 16.5t60 52.5q96 90 116 91q14 0 30.5 -8.5t30 -20.5t20.5 -27.5t5 -29.5q-8 -53 -118 -148q-92 -76 -93 -74q0 -33 131 -200q78 -96 113 -150.5t33 -66.5 q-10 -53 -62 -54q-45 0 -99 49.5t-126 147.5q-33 47 -55.5 81t-38.5 56q-18 27 -31 45q-25 0 -155 -43h2q-72 -29 -130.5 -41t-99.5 -12q-186 0 -303 57q-170 78 -139 254zM317 221q-16 -102 72 -158q41 -23 88 -37t107 -14q35 0 82 9.5t112 25.5q142 41 148 72q0 4 -30 58 t-85 165q-35 66 -68.5 133.5t-68.5 134.5q-10 23 -19.5 34t-13.5 11t-39 -30q-125 -127 -174 -193q-45 -59 -72.5 -111.5t-38.5 -99.5zM631 1120q-2 -16 5 -44.5t28 -71.5q27 -80 49 -80q31 0 131 131q98 131 106 174q2 10 -6 20.5t-20.5 18.5t-27.5 13t-30 5 q-76 0 -149 -45q-72 -47 -86 -121z" />
<glyph unicode="'" horiz-adv-x="655" d="M446 930q-29 49 35 424q4 27 20.5 53.5t40 47t52.5 33.5t57 13q8 0 15 -6l8 -12q4 -16 3 -25.5t-3 -19.5q-8 -49 -27.5 -118t-48.5 -155q-70 -236 -131 -245q-8 -2 -21 10z" />
<glyph unicode="(" horiz-adv-x="813" d="M291.5 232.5q1.5 134.5 25.5 279.5q90 526 537 1059v-2q18 23 30.5 37t18.5 18q16 16 33.5 25.5t36.5 17.5q14 4 22 -6l11 -10q2 -10 2 -21v-6q-2 -25 -45 -84q-188 -262 -305 -514t-160 -502q-35 -195 -30 -384t52 -376q18 -80 25.5 -125t5.5 -59q-10 -51 -51 -51 q-47 0 -115 209v-4q-25 72 -42 132t-28 109q-25 123 -23.5 257.5z" />
<glyph unicode=")" horiz-adv-x="776" d="M111 -432q4 25 36 76q301 461 381 913q61 360 -6 686q-2 8 -16 55.5t-37 128.5q-4 14 -6 25.5t-6 22.5q-16 55 -24.5 85.5t-6.5 38.5q8 43 43 43q68 0 152 -243q29 -88 50 -162t34 -135q31 -147 33 -289t-21 -281q-37 -213 -154 -446t-291 -469q-16 -18 -29.5 -34.5 t-23.5 -24.5h2q-16 -16 -36.5 -26.5t-45.5 -18.5l-18 12q-2 4 -5 8t-3 8q-4 16 -2 27z" />
<glyph unicode="*" horiz-adv-x="929" d="M532 1305q14 84 103 84q18 0 45 -5.5t59 -15.5q14 -4 35 -8l-37 43q-61 74 -55 113q14 86 100 86q59 0 80 -113q4 -18 7 -36.5t5 -35.5h3q2 -6 -3 -6h5q0 2 2 4q0 2 2 2q14 33 39 74v-2q57 113 116 113q29 0 53.5 -25t18.5 -57q-4 -23 -28.5 -51.5t-65.5 -63.5 q-23 -20 -33 -28.5t-13 -11.5l-3 -3l-2 -2q8 2 15 3t17 5v-2q41 16 70 21.5t47 5.5q47 0 63.5 -21.5t8.5 -66.5q-14 -80 -103 -80q-43 0 -106 18q-10 4 -13 7t-20 3l37 -45q61 -72 55 -116q-6 -33 -39.5 -57.5t-64.5 -24.5q-61 0 -76 116v-4q-8 25 -11 39.5t-3 30.5h2l-2 8 v2q-4 -4 -2 -5t-2 -5q-10 -18 -19.5 -35.5t-19.5 -34.5q-57 -113 -117 -112q-29 0 -54.5 24.5t-19.5 57.5q6 43 97 116q25 20 36 29.5t14 12.5l3 3l2 2q-8 -2 -19.5 -3t-21.5 -3q-4 0 -10 -4q-12 -2 -22.5 -4t-20.5 -4q-43 -16 -60 -16q-88 0 -74 84z" />
<glyph unicode="+" horiz-adv-x="899" d="M227 309q41 78 95 86h186q-2 0 4 37q2 10 4 26.5t2 35.5q4 20 5 40.5t5 32.5q2 14 13.5 29.5t27 29t31.5 21.5t31 8q18 0 28.5 -12t6.5 -37l-37 -213h20h33q18 0 39 2q23 0 43 1t37 1q92 0 86 -41q-16 -94 -193 -94h-45q-25 0 -43 4l-33 -190q-2 -14 -12 -31.5t-24.5 -32 t-32 -25t-31.5 -10.5q-47 0 -37 52l39 254q-27 -20 -61 -21q-70 -2 -115 4q-37 2 -56.5 14.5t-15.5 28.5z" />
<glyph unicode="," horiz-adv-x="493" d="M70 -309q4 20 23.5 53t58.5 80q29 41 48 73.5t23 55.5q0 6 1 12t-1 10q-35 8 -59.5 43t-18.5 70q14 92 93 92q147 0 110 -215q-14 -76 -90 -176q-33 -45 -50.5 -71.5t-21.5 -39.5q-8 -57 -61 -57q-68 0 -55 70z" />
<glyph unicode="-" horiz-adv-x="1128" d="M276 248l15 31q18 37 42.5 71.5t61.5 34.5h584q35 0 41 -20l-2 -21q-10 -16 -18.5 -31.5t-14.5 -25.5q-47 -74 -92 -74h-574q-37 0 -43 35z" />
<glyph unicode="." horiz-adv-x="487" d="M166 100q18 106 115 107q18 0 32.5 -10.5t25.5 -25.5t15 -35t2 -36q-18 -115 -106 -114q-102 0 -84 114z" />
<glyph unicode="/" horiz-adv-x="688" d="M-254 -279q4 16 156.5 228.5t447.5 601.5q328 430 506 668.5t201 269.5q29 41 58.5 64.5t58.5 23.5q69 0 57 -68q-6 -43 -146 -215q-41 -53 -81 -102h2q-23 -27 -44.5 -52.5t-43.5 -49.5h4q-315 -401 -548 -715t-386 -547q-129 -197 -174 -197q-31 0 -52.5 30t-15.5 60z " />
<glyph unicode="0" horiz-adv-x="1019" d="M195.5 438q1.5 115 23.5 240q16 98 48 195.5t77 195.5q139 279 295 279q72 0 57 -84q-6 -29 -28 -74q-18 -29 -37 -48.5t-35 -19.5q4 0 -9.5 4t-21.5 9q-2 4 -10 4q-29 0 -63.5 -57.5t-69.5 -145.5q-31 -78 -50.5 -148.5t-29.5 -136.5q-16 -86 -17 -179t9 -179 q16 -113 54 -172.5t101 -59.5q180 0 316 279q53 102 89 216t58 239q16 98 22.5 194t-1.5 189q-6 68 -15 88q-10 37 -53 37q-25 0 -52.5 -34t-53.5 -85q-23 -47 -37 -94.5t-23 -96.5q-23 -127 -4 -155q10 18 24.5 36.5t37.5 18.5q25 0 33 -19.5t1 -54.5q-8 -47 -44.5 -88 t-88.5 -41q-76 0 -88 137q-10 92 6 179q12 70 35 135t58 125q98 164 229 164q147 0 164 -271q2 -78 -5.5 -169t-25.5 -195q-25 -143 -66.5 -274.5t-99.5 -248.5q-86 -170 -190.5 -257t-222.5 -87q-111 0 -177.5 73t-97.5 218q-23 104 -21.5 219z" />
<glyph unicode="1" horiz-adv-x="888" d="M211 946q8 47 76 47q6 0 15 -1t20 -1q8 -4 14 -4h14q66 0 130.5 38t129.5 108q51 63 106.5 128.5t108.5 129.5q4 4 10.5 7t10.5 3q18 0 33.5 -13.5t25.5 -34t15.5 -43t3.5 -40.5q-6 -39 -33 -101l-45 -92v2q-174 -410 -244 -817q-29 -152 -6 -151q4 0 16.5 6t34.5 16 q23 14 46.5 22.5t41.5 8.5q98 0 86 -78q-16 -92 -211 -133q-184 -41 -217 -86v2l-12 -19q-4 -6 -6 -10q-4 -4 -7 -10t-8 -10q-27 -41 -67 -41q-14 0 -27.5 12t-23 29.5t-14.5 37t-3 31.5q6 31 36 58.5t83 60.5q82 45 94 111l11 69q37 203 129 498q4 10 19 60.5t50 142.5 q16 45 27.5 84t19.5 74q-18 -20 -37.5 -41t-38.5 -39q-66 -66 -141.5 -99.5t-157.5 -33.5q-18 0 -38.5 11t-37 27.5t-26.5 37t-6 36.5z" />
<glyph unicode="2" horiz-adv-x="892" d="M133 -4q10 61 58.5 137t127.5 166l203 231q23 23 43.5 47.5t42.5 49.5l-6 -2q80 100 129 195t66 186q18 113 0 194q-23 102 -109 103q-84 0 -160 -107q-35 -47 -56 -95t-32 -102q-4 -25 0 -28q47 -6 41 -47q-4 -16 -25.5 -52t-58.5 -84q-37 -49 -66.5 -79.5t-45.5 -30.5 q-45 0 -52 96q0 59 9 107q16 88 54 177t101 175q152 213 320 213q158 0 207 -158q31 -113 2 -280q-16 -98 -58.5 -191.5t-101.5 -175.5q-20 -29 -75.5 -90.5t-147.5 -159.5q-55 -59 -91 -108.5t-55 -94.5q8 4 27 5q90 0 164 -99q29 -41 54.5 -83t51.5 -83q51 -78 90 -78 q43 0 125 35q43 23 70 32t35 9q63 0 51 -78q-12 -68 -133 -118q-90 -35 -160 -35q-129 0 -211 94q-8 4 -41 52t-84 122q-29 39 -56.5 61.5t-51.5 22.5q-23 0 -52 -59q-51 -94 -96 -94q-66 0 -47 102z" />
<glyph unicode="3" horiz-adv-x="948" d="M-119 -463q8 55 49 55q16 0 28.5 -15t33.5 -44v2q20 -29 37.5 -49.5t31.5 -34.5q51 -39 129 -39q195 0 347 172q72 78 113.5 168t60.5 195q61 365 -154 364q-27 0 -96 -16q-35 -10 -60.5 -13t-46.5 -3q-80 0 -71 61q10 47 106 90l74 29q10 4 18 6t17 6q47 18 93 61 t87 107q82 115 100 223q6 37 4 71t-16 62q-23 63 -90 64q-86 0 -156 -86q-68 -78 -86 -172q-2 -10 -2 -15v-8q49 -4 43 -45q-6 -33 -67 -102q-59 -74 -95 -74q-72 0 -34 201q14 84 51 157.5t90 139.5q127 147 291 147q119 0 182 -96q49 -90 29 -209q-23 -127 -86.5 -247 t-161.5 -224q2 -2 24 -10q218 -70 152 -445q-23 -137 -85.5 -254.5t-156.5 -216.5q-215 -221 -485 -221q-285 0 -242 258z" />
<glyph unicode="4" horiz-adv-x="1044" d="M49 82q6 29 19.5 40t37.5 15q199 211 343.5 389.5t238.5 331.5q23 33 52.5 83t66.5 116l-2 -2q57 117 86 116q102 0 78 -122q0 -4 -9.5 -36t-25.5 -83q-27 -96 -54.5 -223t-54.5 -277q-43 -248 -20 -248q61 0 95 7.5t44 19.5q4 4 14.5 6t16.5 -2q41 -13 29 -74 q-10 -59 -58 -65l-139 -11q-33 -4 -42 -12t-15 -43q-55 -317 -39 -348q2 -4 10 -7t22 -13q23 -18 15 -74q-6 -39 -31 -72q-16 -27 -36.5 -39t-41.5 -12q-123 0 -65 324q2 16 7 41.5t11 60.5q2 10 5 22.5t5 20.5q10 45 13 63q12 61 -25 62q-33 0 -86 -2t-131 -8 q-82 -4 -126 -8.5t-48 -4.5q-45 -59 -66 -59q-20 0 -38.5 12.5t-32 30.5t-20.5 40.5t-3 43.5zM297 160h51q31 0 68 2q12 0 26.5 1t30.5 1t32.5 2t31.5 2q33 2 65 2h55l9 47q25 143 52 281.5t54 277.5q-31 -59 -74 -122.5t-84 -129.5q-72 -104 -146.5 -189t-137.5 -138 q-6 -8 -19.5 -21.5t-13.5 -15.5z" />
<glyph unicode="5" horiz-adv-x="950" d="M25 -629q4 29 24.5 51.5t50.5 45.5q63 43 113 43q23 0 31 -15.5t12 -44.5q0 -20 25 -20q150 0 303 272q68 121 108.5 224.5t57.5 199.5q10 53 12 100t-8 88v-4q-18 109 -90 109q-68 0 -179 -31q-117 -31 -163 -72q-59 -49 -76 -49q-35 0 -58 72q-10 25 -14 47.5t0 38.5 q2 10 7 28.5t16 41.5q84 211 149 508q6 29 10 50t9 31l2 21q29 88 88 88q39 0 120 -47q37 -20 67 -31.5t52 -11.5q29 0 105 35q76 37 127 37q78 0 63 -91q-14 -70 -123 -100q-74 -18 -151 -18q-23 0 -49.5 5t-55.5 15q-57 23 -84 23q-23 0 -49 -37q-6 -14 -27.5 -78 t-56.5 -166q-33 -106 -50 -174t-21 -90q-2 -2 -3 -2h-2q27 0 136 51q61 29 117.5 42t103.5 13q160 0 207 -159q16 -57 19 -130t-11 -153q-25 -147 -84.5 -287.5t-147.5 -267.5q-217 -313 -499 -313q-53 0 -92 20q-29 16 -37.5 40t-3.5 52z" />
<glyph unicode="6" horiz-adv-x="753" d="M162 487q63 377 254 719v-2q246 465 571 465q92 0 72 -113q-10 -70 -47 -98q-18 -14 -27 -6q-55 33 -70 33q-16 0 -36.5 -5t-44.5 -16q-94 -39 -182.5 -136t-168.5 -245q-55 -111 -97 -226.5t-64 -229.5q170 201 284 200q119 0 160 -143q10 -47 10 -109q0 -61 -12 -129 q-14 -86 -48 -174t-79 -166q-66 -109 -140.5 -165t-152.5 -56q-287 0 -182 602zM274 356q-16 -160 10.5 -243.5t100.5 -83.5q43 0 84 42t82 113q29 59 53.5 124.5t34.5 131.5q6 41 7 81t-5 79q-12 96 -51 96t-77 -27.5t-69 -70.5q-10 -18 -34.5 -65.5t-61.5 -124.5 q-35 -55 -57 -56q-6 0 -9 1t-8 3z" />
<glyph unicode="7" horiz-adv-x="1015" d="M217 1020q14 84 100 84q43 0 98.5 -13.5t127.5 -37.5q131 -49 207 -49q94 0 155 67q14 10 37 45t55 90q51 88 111 88q29 0 51.5 -29.5t18.5 -60.5q-6 -29 -24.5 -58.5t-39.5 -60.5v5l-10 -15q-12 -16 -12 -20q-20 -29 -69.5 -123t-127.5 -244q-33 -66 -61.5 -125 t-51 -105t-37 -75t-14.5 -35l-2 -8q33 0 96 29q78 33 125 32q92 1 80 -65q-4 -16 -19.5 -38t-38 -41t-46 -36.5t-41.5 -25.5q-10 -6 -21 0l-14 6q-10 6 -10 20l4 17q-154 -4 -211 -111q-68 -123 -121 -291t-90 -389q-29 -150 -82 -149q-31 0 -50.5 26.5t-23.5 71.5 q-6 59 6 125q10 53 36 122.5t67 161.5q43 92 68.5 159t33.5 112v8q-10 0 -30.5 -7t-43.5 -18q-23 -10 -49 -18t-43 -8q-29 0 -53 51q-27 49 -20 74q8 51 161 86q78 16 118 27.5t50 15.5q10 6 20.5 16t20.5 31q106 186 167 318t75 218q-57 -23 -117 -22q-63 0 -170 47 q-47 18 -83 28.5t-62 10.5q-35 0 -37 -16q0 -6 2 -23.5t6 -36.5q2 -16 2 -31q0 -12 -10 -28q-2 -6 -10.5 -10.5t-14.5 -4.5q-35 0 -65.5 21.5t-50.5 64.5q-35 80 -23 150z" />
<glyph unicode="8" horiz-adv-x="698" d="M125 219q10 55 42 126t89 167q53 90 81 139t30 64q6 35 -29 198q-20 92 -24.5 162t5.5 121q33 188 195 188q23 0 47.5 -10t45 -26.5t32.5 -38t8 -43.5q-10 -63 -67 -64q-14 0 -24.5 7.5t-20.5 17.5l-17 14q-72 0 -84 -84q-10 -45 8 -174q16 -127 23 -127q-2 0 10 21 q176 246 219 495q4 16 4 45q0 31 -2 72q-6 82 4 129q12 76 60 76q55 0 61 -156q-2 -53 -4 -96t-8 -82q-31 -180 -182 -455q-35 -68 -61.5 -110.5t-49.5 -67.5q4 -4 2 -10q2 4 12.5 -20.5t26.5 -71.5q18 -55 33.5 -109.5t27.5 -107.5q16 -74 18.5 -136.5t-7.5 -115.5 t-32 -105.5t-48 -95.5q-39 -53 -87 -84t-102 -31q-119 0 -192 135q-29 63 -41 124t-2 120zM252 209q-12 -70 24 -158h-2q35 -86 103 -86q45 0 92 74q14 29 27.5 62.5t19.5 66.5q12 72 -8.5 173t-73.5 226q-6 10 -4 13q-18 -8 -88 -160q-41 -86 -63.5 -137.5t-26.5 -73.5z " />
<glyph unicode="9" horiz-adv-x="827" d="M-45 -575q10 59 45 86q4 6 12 8t15 -2q55 -33 67 -33q33 0 80 20q190 76 324 375q53 111 90 223.5t59 237.5q-82 -100 -149.5 -151.5t-126.5 -51.5q-139 0 -170 166q-23 119 2 260q16 86 43.5 165t72.5 155q117 199 271 198q94 0 150.5 -72.5t70.5 -209.5q6 -84 0 -189.5 t-29 -228.5q-31 -176 -88 -344t-137 -316q-111 -207 -244 -313t-284 -106q-96 0 -74 123zM320.5 480q-1.5 -46 1.5 -95q10 -47 25 -79t40 -32q35 0 68.5 24t62.5 67q14 20 34.5 65t47.5 111q31 75 64 75q14 0 18 -4q18 322 -127 322q-82 0 -156 -135q-23 -53 -41 -109.5 t-28 -120.5q-8 -43 -9.5 -89z" />
<glyph unicode=":" horiz-adv-x="591" d="M160 74q8 45 46 83t85 38q83 -1 67 -95q-4 -23 -17 -44t-31.5 -38.5t-41 -27.5t-43.5 -10q-82 0 -65 94zM231 481q20 106 115 107q35 0 59.5 -34t16.5 -73q-18 -111 -105 -110q-104 0 -86 110z" />
<glyph unicode=";" horiz-adv-x="514" d="M70 -309q4 20 23.5 53t58.5 80q29 41 48 73.5t23 55.5q0 6 1 12t-1 10q-35 8 -59.5 43t-18.5 70q14 92 93 92q147 0 110 -215q-14 -76 -90 -176q-33 -45 -50.5 -71.5t-21.5 -39.5q-8 -57 -61 -57q-68 0 -55 70zM231 481q20 106 115 107q35 0 59.5 -34t16.5 -73 q-18 -111 -105 -110q-104 0 -86 110z" />
<glyph unicode="&#x3c;" horiz-adv-x="800" d="M174 293q4 14 16.5 32.5t38.5 30.5h-4q238 145 367 216t149 71q39 0 31 -61q-6 -37 -16.5 -49.5t-38.5 -30.5q-2 -2 -6 -5t-9 -5q-82 -49 -158.5 -95.5t-162.5 -99.5q63 -53 127.5 -105.5t128.5 -105.5q4 -4 6 -8q23 -18 29 -30.5t2 -47.5q-12 -63 -58 -63 q-12 0 -64 35.5t-136 101.5l-154 114l2 -2q-16 10 -31.5 23.5t-29.5 23.5h4q-37 25 -33 60z" />
<glyph unicode="=" horiz-adv-x="1142" d="M242 260l14 31q18 37 43 70.5t61 33.5h781q31 0 41 -18l-2 -21q-10 -16 -18.5 -31.5t-14.5 -25.5q-47 -74 -92 -74h-770q-37 0 -43 35zM307 643q2 18 15.5 42t31 45.5t37 36.5t37.5 15h786l23 -12q10 -10 10 -22q-6 -39 -41 -82q-23 -23 -44 -38.5t-46 -15.5h-770 q-23 0 -33 6.5t-6 24.5z" />
<glyph unicode="&#x3e;" horiz-adv-x="800" d="M139 0q2 18 5 28.5t9.5 17.5t15.5 14.5t26 17.5q2 2 12 8l328 211q-63 51 -130 100t-129 97l-8 8l2 -2q-14 10 -21 17t-9 14.5t-1 18.5t5 32q8 61 49 61q45 0 418 -287h-2q34 -26 28 -63q-2 -16 -14 -32.5t-41 -29.5l4 2q-66 -39 -132.5 -78.5t-131.5 -80.5 q-231 -137 -252 -137q-43 0 -31 63z" />
<glyph unicode="?" horiz-adv-x="1095" d="M265 844.5q1 27.5 5 56.5q16 100 73.5 194.5t152.5 186.5q193 180 393 180q84 0 148.5 -28.5t104.5 -79.5t54 -123t0 -158q-25 -150 -170 -295q-10 -10 -73.5 -61t-180.5 -144q-127 -100 -139 -167q-2 -6 4 -12.5t14 -10.5q12 -12 21.5 -24.5t5.5 -34.5 q-4 -18 -28.5 -31.5t-74.5 -36.5q-47 -25 -77.5 -37t-32.5 -14l-19 -6q-35 16 -46 40.5t-7 53.5q25 141 195 293l291 235q147 133 170 262q18 106 -32 171t-159 65q-59 0 -112.5 -22.5t-106.5 -67.5q-111 -92 -129 -209q-6 -33 8 -33q33 -2 45 -14t10 -29q-4 -20 -31.5 -58 t-72.5 -85q-98 -109 -139 -109q-55 0 -60 99l-2 -3q-4 29 -3 56.5zM412 96q12 84 84 84q59 0 91.5 -37t22.5 -94q-12 -74 -102 -74q-23 0 -42.5 11.5t-32.5 28t-19 38t-2 43.5z" />
<glyph unicode="@" horiz-adv-x="1544" d="M236 514q49 272 270 473q225 207 498 207q244 0 382 -160q70 -82 97 -181t4 -224q-33 -180 -168 -310q-135 -123 -318 -122q-117 0 -96 114q4 18 15 45q2 8 4 17.5t4 17.5q-18 -16 -41 -38.5t-47 -53.5q-100 -102 -168 -102q-63 0 -78 100v-2q-16 63 -4 135 q29 164 145 299q72 84 144.5 127t150.5 43q10 0 27.5 -3t32.5 -7q10 -2 18 -4l16 -4t19 -4q4 4 12 8q14 6 33 20l16 -4q20 0 19 -24q-14 -82 -72 -234q-59 -152 -72 -223q-18 -109 21 -109q102 0 180 105q61 90 84 215q35 203 -70 319q-104 123 -309 123q-100 0 -193.5 -42 t-170.5 -113q-154 -158 -189 -363q-23 -121 -1 -221.5t77 -181.5q59 -74 151.5 -115t208.5 -41q55 0 269 55l22 -12q4 -2 8 -8t2 -11q-4 -41 -53 -69.5t-139 -48.5q-59 -12 -112.5 -19.5t-96.5 -7.5q-139 0 -245.5 45t-184.5 133q-152 180 -102 461zM770 506 q-23 -139 4 -139q31 0 105 86q35 39 57 71.5t35 57.5q39 90 45 133q2 10 0 22q-20 27 -86 27q-29 0 -56.5 -24.5t-48.5 -65.5q-18 -35 -31.5 -78t-23.5 -90z" />
<glyph unicode="A" horiz-adv-x="1540" d="M89 163q7 124 30 259q68 379 211 379q69 0 69 -66q0 -15 -4 -33q-31 -170 -80 -170q-12 0 -19 7.5t-15 17.5q-6 6 -2 10q-16 -6 -39 -127q-16 -98 -22 -204q-4 -66 -5 -131q0 -40 2 -80q8 -145 38 -220t85 -75q51 0 97 36.5t93 108.5q33 55 117 236q10 18 24.5 47.5 t24.5 50.5q16 27 31 61h-2q27 53 41 84t16 41q2 8 -10 8q-10 0 -33.5 -3t-46.5 -7q-27 -4 -50.5 -6t-37.5 -2q4 0 -4 -20q-23 -66 -57 -66q-37 0 -62 55q-12 23 -15 44.5t1 39.5q12 72 176 90h176q16 0 39 29l55 123q29 61 70 151.5t94 210.5q186 408 264 408 q120 0 120 -119q0 -25 -5 -55q-4 -16 -9 -37.5t-9 -44.5q-6 -20 -8.5 -35.5t-4.5 -25.5q-16 -80 -37 -224q-12 -72 -21 -129t-15 -94l-23 -121q10 0 21 2q4 0 9 1t7 1q20 0 43 -6t40 -18.5t26.5 -29.5t5.5 -38q-6 -43 -82 -47l-2 14q-10 -4 -29.5 -8t-42.5 -4q-10 0 -27 -80 q-20 -120 -22 -234v-26q0 -99 14 -186q25 -125 83.5 -195.5t148.5 -70.5q12 0 27.5 2t28.5 7t23.5 10t12.5 11q-4 2 -8 6t-7.5 8.5t-7.5 8.5q-14 12 -23.5 25.5t-4.5 33.5q6 35 61 35q150 0 150 -100q0 -15 -3 -31q-12 -74 -100 -113h4q-66 -30 -133 -30h-4q-143 0 -236 98 h5q-88 84 -123 221q-20 88 -21 236q0 150 17 325q2 6 3 17.5t5 11.5q-37 0 -96.5 -3t-126.5 -13q-39 -6 -54.5 -15.5t-38.5 -48.5q-49 -111 -102 -224.5t-104 -223.5q-174 -334 -340 -334q-203 0 -230 362q-8 74 -8 151q0 44 3 90zM977 549q0 -8 4 -8q16 0 44 2t62 8 q41 4 68 5t47 1q4 0 4 8q6 16 18.5 73t28.5 157q33 186 49.5 304t22.5 165q-25 -39 -69 -127t-111 -224q-82 -168 -123 -259t-45 -105z" />
<glyph unicode="B" horiz-adv-x="1562" d="M72 -23q6 45 41 46q16 0 37.5 -23t56.5 -63q92 -129 395 -130q123 0 230.5 27t205.5 80q111 59 174.5 146t83.5 200q5 31 5 58q0 101 -72 161q-72 70 -238 70q-82 0 -143.5 -5t-104.5 -16q-27 -6 -34 -13t-17 -38q-33 -82 -49 -182q-10 -55 -10 -74q0 -8 2 -10 q14 2 26.5 3t20.5 -7t10 -26.5t-4 -55.5q-6 -41 -31 -84q-39 -70 -84 -70q-55 -1 -69 61q-6 24 -6 58q0 53 14 131q6 35 19.5 89.5t37.5 131.5q-16 -16 -29.5 -21t-23.5 -5q-47 0 -94 28v-2q-41 27 -41 72q0 11 2 23q10 63 115 94l51 16v-4q16 6 34.5 10t34.5 11 q8 2 17.5 14t13.5 24q12 33 23.5 65t25.5 64q14 33 25.5 65t24.5 67q88 229 139 229q49 0 65 -30q9 -17 9 -44q0 -20 -5 -45q-172 -297 -188 -393h33q68 0 148.5 29.5t168.5 81.5q92 59 143.5 120.5t63.5 130.5q2 12 2 24q0 82 -98 142q-51 29 -107.5 45.5t-111.5 16.5 q-59 0 -141.5 -10.5t-190.5 -30.5q-252 -51 -264 -101q6 6 22 -10q36 -32 35 -61v-8q-8 -66 -113 -66q-59 0 -94 39q-27 30 -27 71q0 13 3 27q14 72 107 127.5t257 93.5q111 27 224.5 43.5t203.5 16.5q96 0 172 -23.5t139 -64.5q115 -86 115 -227q0 -32 -6 -66 q-18 -104 -102 -201q-51 -57 -144 -119q-59 -39 -63 -41q6 2 28 -6q150 -37 219 -133q49 -68 48 -164q0 -40 -8 -86q-25 -141 -105 -256.5t-205 -201.5q-117 -74 -250 -113t-278 -39q-197 0 -344 55q-180 73 -180 215q0 23 4 47z" />
<glyph unicode="C" horiz-adv-x="1067" d="M143 358q25 145 88.5 294t169.5 306q254 377 521 377q72 0 123 -32.5t77 -90.5q23 -50 26 -114q1 -13 0 -26q0 -53 -9 -109q-12 -68 -42 -148t-75 -162q-59 -102 -120.5 -157.5t-125.5 -55.5q-85 0 -85 57q0 7 1 15q2 14 14.5 45t38.5 78v-4q57 104 86 104 q23 0 34.5 -18.5t17.5 -32.5q6 -10 -2 -10q23 4 63 114q16 45 27.5 89.5t19.5 89.5q9 53 9 94q0 133 -97 133q-207 0 -409 -311q-86 -135 -140.5 -263t-77.5 -251q-14 -77 -14 -144q0 -78 19 -141q8 -39 30.5 -77t55.5 -68q74 -72 149 -72q53 0 107.5 17.5t111.5 58.5 q98 72 158 180v-2q2 4 3 8t3 8l-2 -2l47 94h-4q51 100 94 101q38 0 54 -36q11 -26 12 -51q0 -10 -2 -20q-10 -57 -64 -129q-141 -186 -268 -279.5t-242 -93.5q-250 0 -348 209q-49 112 -49 254q0 82 16 174z" />
<glyph unicode="D" horiz-adv-x="1507" d="M102 1028q23 127 359 227v-2q141 47 245.5 67.5t178.5 20.5q164 0 285.5 -55t203.5 -160q76 -104 103 -239q13 -65 13 -137q0 -78 -15 -164q-25 -147 -95.5 -281.5t-183.5 -263.5q-129 -139 -260 -206.5t-279 -67.5q-147 0 -270 40q-74 28 -74 93q0 11 2 22 q2 14 13.5 31.5t21.5 34.5q4 4 10.5 10t8.5 10q8 6 15 14.5t11 12.5q10 25 58 221q63 262 130.5 462t133.5 329q23 39 44 63.5t40 24.5q72 0 72 -85q0 -23 -5 -53q-6 -37 -29.5 -74.5t-50.5 -74.5l3 2q-4 -4 -6.5 -8t-6.5 -8q-23 -35 -60.5 -143.5t-84.5 -268.5 q-45 -154 -77 -266.5t-42 -171.5q-2 -11 -2 -20q0 -40 35 -50h-2q14 -4 46 -6t83 -2q117 0 223.5 57t208.5 164q92 102 150.5 215t78.5 236q12 70 12 135q-1 55 -9 107q-20 112 -76 198q-127 182 -388 182q-260 0 -524 -147q-10 -4 -12 -17q2 4 6 0l8 -8q10 -14 21.5 -22.5 t7.5 -24.5q-4 -20 -20.5 -35.5t-38 -27t-46 -16.5t-45.5 -5q-29 0 -54 10.5t-43 27.5t-28 41q-6 14 -6 30q0 11 2 22z" />
<glyph unicode="E" horiz-adv-x="1032" d="M106 268q8 53 166 54q16 0 31 34v-2q35 121 94.5 301.5t143.5 421.5l-2 -4l4 8t4 13q-16 -2 -40 -8.5t-50 -14.5q-59 -27 -56 -47l-2 -14q-4 -27 -30 -23q-29 0 -66 31h4q-44 31 -44 57q0 3 1 6q6 37 87 74t251 82q25 61 47.5 95t40.5 34q10 0 22.5 -25.5t20.5 -72.5 q266 63 385 63q31 0 59.5 -11t50.5 -30q20 -20 32 -46q8 -17 8 -36q0 -10 -2 -20q-12 -80 -125 -80q-41 0 -78 45q-16 27 -82 27q-133 0 -244 -37q-29 -10 -61 -70q-23 -49 -56.5 -139t-76.5 -225v2q-88 -274 -105 -367q55 0 168 33q131 29 197 29q134 0 134 -63 q0 -6 -1 -13q-2 -16 -21.5 -39t-46.5 -41q-51 -37 -98 -39l-20 8q-6 4 -10.5 11.5t-0.5 15.5l6 24q0 -8 -10 -8q-158 0 -307 -49h2q-20 -6 -26.5 -16.5t-12.5 -32.5q-10 -49 -24.5 -119t-24.5 -139q-12 -62 -12 -94q0 -35 14 -35q10 0 57.5 14t137.5 49q258 96 538 97 q122 0 122 -69q0 -7 -1 -15q-10 -57 -121 -99q-86 -35 -141 -35q-14 0 -35 15q-12 12 -32.5 23.5t-39.5 11.5q-98 0 -321 -78q-25 -10 -56.5 -16.5t-63.5 -11.5t-59.5 -8t-43.5 -3q16 -4 12 -25.5t-23 -21.5q-35 0 -59 98q-5 33 -5 78q0 128 38 358l4 19q-4 -2 -8 -5l-8 -6 q-27 -16 -46 -16q-35 0 -69 62q-16 36 -16 62q0 7 1 13z" />
<glyph unicode="F" horiz-adv-x="813" d="M-25 279q4 20 50.5 33.5t130.5 19.5q35 166 95 358.5t138 413.5q-63 -18 -102 -33.5t-41 -26.5l2 -12l-2 -14q-2 -10 -11.5 -18.5t-21.5 -6.5q-14 2 -28.5 9.5t-37.5 21.5q-42 31 -42 55q0 3 1 6q6 37 87 74t247 84q25 59 46.5 94t37.5 35q14 0 24.5 -27.5t20.5 -68.5 q137 33 232.5 47t152.5 14q31 0 59.5 -12t50.5 -31q22 -20 34 -46q9 -20 9 -41q0 -7 -1 -15q-14 -76 -123 -76q-43 0 -74 43q-23 29 -88 29q-47 0 -113.5 -11.5t-154.5 -31.5q-68 -141 -128 -337t-120 -454q23 4 63 12.5t93 18.5q125 29 203 29q136 0 136 -68q0 -6 -1 -12 q-6 -37 -68 -78q-66 -39 -92 -39q-25 0 -27 12q-8 10 -7 15.5t7 21.5v4q-2 -2 -14 -2q-98 0 -332 -55q-10 -29 -14 -68t-12 -86q-16 -93 -24 -159q-6 -52 -6 -92q0 -11 1 -21q3 -35 3 -62q0 -36 -5 -57q-8 -59 -53 -59q-23 0 -36.5 25.5t-23.5 72.5q-12 59 -12 142 q0 19 1 37q3 106 26 233q2 10 3 14t2 7t2 7.5t3 16.5q-29 -12 -50.5 -19.5t-27.5 -7.5q-10 0 -23.5 15.5t-23.5 40.5q-23 37 -23 69q0 9 2 17z" />
<glyph unicode="G" horiz-adv-x="1083" d="M6 -292q-4 41 -4 82q0 66 10 132q14 94 74 94q49 0 74 -129q12 -73 12 -119q0 -21 -2 -36q-8 -39 -41 -39q-6 0 -14 8q2 -47 18.5 -96t42.5 -97q45 -66 92 -100.5t103 -34.5q160 0 311 193q61 86 103 174t59 176q10 53 13 92q1 11 1 21q0 26 -6 47q-31 -37 -71 -77 t-81 -65q-123 -86 -235 -86q-109 0 -181.5 49.5t-115.5 147.5q-44 104 -44 231q0 70 13 146q23 135 88.5 276.5t169.5 292.5q248 358 498 359q137 0 203 -133q36 -77 36 -166q0 -43 -8 -88q-4 -31 -18 -64q59 72 92 72q12 0 21.5 -10.5t16.5 -24.5t10 -30q2 -9 2 -16 q0 -5 -1 -9q-6 -43 -96 -140q-41 -47 -67.5 -79.5t-32.5 -49.5q-8 -14 -11.5 -25.5t-7.5 -21.5t-9 -25.5t-9 -25.5q-16 -39 -39 -59.5t-45 -20.5q-37 0 -58 37q-15 29 -15 57q0 9 1 17q2 10 14.5 39.5t38.5 81.5q37 78 59.5 140t30.5 114q13 67 13 119q0 58 -16 95 q-31 72 -113 72q-70 0 -187 -96q-78 -61 -147.5 -141t-130.5 -178q-59 -98 -97 -190.5t-55 -184.5q-15 -82 -15 -148q0 -266 239 -266q96 0 188 76q23 23 55.5 60.5t73.5 90.5q31 43 59.5 69t46.5 26q100 0 100 -166q0 -66 -16 -158q-25 -141 -73.5 -263t-114.5 -220 q-92 -123 -205.5 -192.5t-243.5 -69.5q-209 0 -305 243q-41 104 -51 210z" />
<glyph unicode="H" horiz-adv-x="1144" d="M84 623q8 51 125 67h31q29 0 79 2q43 162 94.5 331t108.5 349q-6 -6 -20 -6q-45 0 -45 54q0 15 4 34q2 14 51 70v-2q16 23 25.5 33t13.5 14l4 2l33 63q33 57 63 58q35 0 59 -29q19 -23 18 -53q0 -8 -1 -15q-2 -8 -13.5 -37.5t-29.5 -80.5q-4 -8 -6 -14.5t-6 -14.5 q-111 -313 -232 -743q119 8 230.5 13t230.5 11q23 98 41.5 176t28.5 117q2 10 5 21.5t3 17.5q27 106 56.5 193t64.5 159v-2q12 31 28.5 48.5t28.5 17.5q20 0 36.5 -12.5t28 -32t16.5 -41t3 -39.5q-4 -16 -13 -40t-30 -57q-18 -29 -29.5 -49t-15.5 -30q-92 -190 -129 -431 l-4 -16l10 -8q0 6 5 12t16 6q97 0 97 -67q0 -11 -3 -25q-4 -27 -41 -40q-28 -10 -81 -10q-16 0 -34 1q-27 -98 -45 -180t-29 -137q-21 -125 -21 -229q0 -68 9 -128q31 -211 178 -211q53 0 154 41h-2q96 43 106 84q-4 -4 -5 -2t-3 4q-14 10 -25.5 23.5t-7.5 40.5 q12 63 123 63q47 0 76 -38q22 -28 22 -61q0 -11 -3 -24q-8 -47 -54.5 -95t-124.5 -95q-147 -86 -241 -86q-113 0 -187.5 62.5t-109.5 183.5q-27 92 -29 200v20q0 100 18 210q4 16 19.5 19t23.5 -7q-3 13 -3 52q0 20 1 46q2 78 37 234q-117 -2 -226.5 -4t-227.5 -4 q-29 -92 -47.5 -178.5t-30.5 -163.5q-6 -31 -6 -50q0 -18 8 -20q34 -15 34 -54q0 -8 -1 -16q-8 -47 -35 -82q-43 -53 -86 -53q-29 0 -45.5 18.5t-26.5 53.5q-4 20 -5 47t3 49q14 86 46 195.5t73 234.5q-27 -6 -64 -8q-2 -4 -4 -10t-10 -17q-10 -14 -19.5 -20t-25.5 -6 q-42 0 -68 39q-20 30 -20 63q0 11 2 21z" />
<glyph unicode="I" horiz-adv-x="1155" d="M98 488q-1 22 -1 45q0 127 20 245q55 299 145 299q35 0 52.5 -21.5t27.5 -68.5q8 -33 8 -63q0 -31 -4 -60q-10 -49 -45 -49q-33 0 -47 23q-20 -128 -22 -264v-22q0 -124 16 -245q23 -188 81 -288.5t150 -100.5q63 0 152 135q29 51 55.5 106.5t44.5 110.5q20 59 46 150.5 t59 214.5t60.5 215t49.5 154q20 63 23 77l-107 -94q-29 -25 -55.5 -50.5t-50.5 -47.5q-45 -41 -78 -75t-53 -62q12 10 32 10q29 0 42.5 -33t9.5 -61q-10 -51 -63.5 -83t-106.5 -32q-79 0 -79 84q0 16 3 35q20 109 151 246q29 29 91.5 86t164.5 143q78 68 130.5 119t76.5 88 v-4q4 12 12.5 27.5t12.5 21.5v-2q16 29 19 32t9 13q27 43 46.5 63.5t42.5 20.5q37 0 65 -31q21 -24 21 -53q0 -8 -2 -17q-6 -39 -66 -94q-33 -35 -53.5 -56.5t-24.5 -29.5q-25 -33 -50.5 -118t-57.5 -226q-6 -23 -10.5 -46.5t-12.5 -43.5q-27 -117 -44 -192.5t-30 -118.5 q-33 -117 -69.5 -218.5t-77.5 -181.5q-158 -323 -345 -323h-1q-121 0 -201 103.5t-123 301.5q-35 156 -39 306z" />
<glyph unicode="J" horiz-adv-x="1040" d="M36 536q-8 66 -8 129q0 83 13 160q25 125 98 125q53 0 81 -49q21 -36 21 -77q0 -14 -3 -29q-6 -31 -37 -68q-12 -18 -22.5 -36.5t-12.5 -28.5q-6 -34 -6 -76q0 -50 9 -110q17 -111 64 -245q51 -141 109.5 -216.5t122.5 -75.5q76 0 141 137q16 37 38 94t44 137 q68 240 114 422t68 311q8 43 12.5 78t0.5 58q2 23 2 36v25q2 4 2 12q6 29 24 45q8 8 19 9h33h2q80 0 80 -130q0 -52 -13 -124q-10 -57 -27.5 -130t-46.5 -159q-27 -84 -45 -142.5t-28 -91.5q-16 -43 -17 -47q-45 -154 -74.5 -252t-45.5 -141q-125 -305 -263 -305 q-246 0 -379 420q-53 180 -70 335zM319 1276q10 55 123 99t326 75q158 23 285 34t229 11q141 0 141 -112q0 -19 -4 -42l-18 -16q-2 -2 -8.5 -5t-10.5 -3q-23 0 -45 4t-51 10q-29 8 -47 12.5t-33 4.5q-436 0 -612 -70q4 -2 6 -2q4 0 10 -2q23 -10 36 -23.5t9 -33.5t-32.5 -33 t-87.5 -13q-217 0 -217 91q0 7 1 14z" />
<glyph unicode="K" horiz-adv-x="1128" d="M94 -143q8 37 20.5 89t30.5 113q18 68 29.5 113t18.5 72q-41 31 -65 60.5t-19 49.5q6 39 110 39q25 119 50.5 235.5t49.5 233.5q86 412 170 412q18 0 35 -16.5t28 -39t16 -47t3 -43.5q-4 -27 -20 -56.5t-33 -61.5q-4 -10 -12 -23.5t-4 -5.5l2 2q-16 -35 -38 -104.5 t-50 -173.5q-23 -92 -38.5 -167t-23.5 -124q-4 -12 -4 -13q2 0 19 5h-2q227 70 424 196q240 164 270 334q4 25 4 50q0 22 -3 45q-7 48 -36 91q-56 99 -56 137q0 4 1 7q8 47 55 47q49 0 90 -39t70 -107q27 -59 35 -117q4 -26 3 -51q0 -31 -5 -61q-16 -98 -93 -202.5 t-204 -205.5q-111 -88 -224.5 -148t-222.5 -89q-10 -2 -21.5 -5t-21.5 -5q-6 -2 -13 -3t-16 -6q-29 -6 -30 -6q14 -10 46 -31.5t81 -52.5q150 -100 232.5 -155.5t105.5 -67.5q219 -139 305 -158q-4 8 -6 18.5t-7 20.5q0 6 3.5 14.5t7.5 12.5l12 8q2 2 9 5t12 3 q35 -4 74.5 -22.5t82.5 -55.5q85 -66 85 -134q0 -7 -1 -15q-10 -53 -80 -53q-166 0 -561 235q-147 90 -266 170t-211 158q-23 -70 -40 -143.5t-30 -151.5q-2 -10 -3 -14t-3 10l-2 -16q8 0 12.5 1t10.5 1q4 0 7 1t5 1q48 0 48 -41q0 -6 -1 -13q-6 -37 -57 -100 q-49 -72 -90 -72q-71 0 -71 117q0 46 11 109z" />
<glyph unicode="L" horiz-adv-x="1218" d="M31 580q8 63 75 63q135 0 181 -53l43 -78q18 -16 58 -24.5t99 -8.5q76 0 153 23.5t148 64.5q109 408 136 490q141 395 297 395q84 0 116 -111q18 -58 17 -113q0 -29 -4 -57q-68 -393 -441 -653q-47 -186 -93 -326.5t-91 -238.5h78h49q99 0 201 -6q127 -8 262 -25 q408 -53 408 -167q0 -5 -1 -11q-8 -51 -108 -88q-84 -37 -125 -37q-31 0 -51.5 24.5t-16.5 53.5q4 18 18.5 27.5t30.5 19.5l5 2q-12 0 -21 4q-141 29 -269 46.5t-233 17.5h-155q-70 0 -146 -2q-150 -240 -356 -240q-102 0 -168 35q-47 20 -69 59q-15 27 -14 58q0 15 3 30 q29 172 520 197q49 90 92 203.5t91 265.5q-82 -41 -160 -59.5t-150 -18.5q-53 0 -115.5 14.5t-134.5 46.5q-161 74 -161 159q0 9 2 18zM223 -250q-1 -24 62 -24t104 17t82 62q-238 -8 -248 -55zM954 700q43 43 80 92.5t76 108.5q47 80 77 148.5t40 134.5q8 46 8 76 q0 51 -25 51q-78 0 -170 -289q-6 -18 -12 -41t-16.5 -58.5t-23.5 -89t-34 -133.5z" />
<glyph unicode="M" horiz-adv-x="1783" d="M-8 -248q-14 106 -14 212q0 133 22 265q51 307 201 308q72 0 72 -75q0 -16 -3 -36q-27 -158 -77 -158q-12 0 -19.5 8.5t-13.5 18.5q-6 2 -6 8q-20 -6 -35 -98q-11 -51 -15 -109q-3 -40 -3 -83q0 -20 1 -40q-1 -19 -1 -37q1 -49 5 -90q6 -55 15 -92q20 -84 53 -128t68 -44 q47 0 116.5 125t155.5 354q35 96 83 253t114 372q104 348 175.5 530.5t121.5 182.5q86 0 120 -70q8 -15 8 -78q0 -31 -2 -73q-6 -128 -24 -344q-12 -147 -22 -261q-8 -94 -7 -147v-20q23 41 47.5 103t59.5 159q68 176 113 288.5t67 161.5q55 119 103.5 181.5t89.5 62.5 q74 0 125 -94q8 -12 8 -51q0 -50 -13 -144q-4 -29 -8 -60.5t-10 -66.5q-6 -37 -14.5 -79t-16.5 -85q-18 -96 -27.5 -148t-13.5 -69q-27 -155 -38 -307q-8 -111 -8 -200q0 -32 1 -62q12 -184 71.5 -280.5t166.5 -96.5q20 0 55 12q18 6 24.5 10.5t8.5 6.5q0 12 -17 28 q-16 12 -27 26.5t-7 29.5q6 39 59 39q155 -1 155 -108q0 -15 -3 -32q-12 -72 -101 -108q-63 -29 -127 -29q-129 0 -216 80t-128 227q-33 104 -37 248q-1 23 -1 47q0 126 18 277q6 47 30.5 194.5t67.5 393.5q18 112 18 198v17q-20 -43 -54 -118t-77 -175.5t-95 -224 t-109 -267.5q-14 -35 -43 -92t-70 -135q-29 -45 -78 -45q-78 0 -78 190q0 33 2 72q2 16 9.5 93t23.5 212q15 141 19 263q2 52 1 99q0 62 -3 115q-20 -55 -50 -149t-71 -217q-37 -123 -77 -252t-81 -252q-59 -184 -103 -306t-71 -186q-82 -186 -164 -287.5t-156 -101.5 q-96 0 -157.5 84t-81.5 256z" />
<glyph unicode="N" horiz-adv-x="1110" d="M94 -170q20 113 52 249t79 300q39 135 76 270t78 273q51 178 98 284.5t86 106.5q84 0 109 -187q6 -62 7 -202v-102q0 -111 -1 -257v-57q0 -139 8 -251q10 -134 33 -232q4 -4 4 -13q0 -6 2 -14l2 2q4 -8 4 -12q0 -6 2 -11q-2 -2 0 -4q27 53 74 208t117 409 q80 307 147.5 497.5t118.5 264.5q45 59 86 59q61 0 74 -125v2q1 -24 1 -46q0 -54 -8 -101q-14 -84 -57 -84q-49 0 -61 69q0 4 -2 8.5t-2 6.5q-47 -113 -162 -535q-47 -178 -89 -340t-73 -307q-45 -195 -156 -195q-150 0 -184 541q-2 166 -5 331t-7 331q0 4 1 8t-3 8 q-31 -74 -76 -205t-92 -295q-47 -166 -80 -304t-49 -236q-3 -21 -3 -36q0 -22 7 -28v2q35 -16 35 -57q0 -10 -2 -21q-4 -20 -14.5 -46.5t-26.5 -59.5q-47 -86 -92 -86q-66 0 -66 113q0 44 10 106z" />
<glyph unicode="O" d="M203 154q-2 33 -2 66q0 91 16 188q31 174 108.5 328.5t200.5 297.5q123 131 189 131q47 0 59 -39q92 152 180 232t166 80q172 0 191 -281q1 -25 1 -52q0 -57 -6 -122q-8 -96 -28 -211q-29 -164 -81 -328.5t-124 -318.5q-102 -211 -224 -330t-245 -119q-127 0 -217 68 t-139 190q-37 98 -45 220zM311 180q10 -61 33 -126.5t57 -116.5q84 -129 195 -130q104 0 200.5 108t188.5 318v-2q68 156 115 310.5t76 318.5q26 148 26 247q0 204 -110 204q-25 0 -56.5 -25.5t-68.5 -72t-79 -111t-85 -141.5q-82 -160 -136.5 -285t-68.5 -205 q-16 -94 -18 -127q8 16 20 27.5t33 11.5q38 0 38 -48q0 -14 -3 -32q-4 -23 -16.5 -44t-30 -37.5t-38 -27t-40.5 -10.5q-76 0 -76 123q0 49 12 119q35 201 191 516q-12 0 -27 8h2q-2 2 -4 2t-4 2q-2 0 -4 2q-20 -2 -54 -36.5t-77 -96.5q-63 -96 -109.5 -196.5t-62.5 -186.5 l-8 -47q-16 -64 -16 -134q0 -38 5 -79z" />
<glyph unicode="P" horiz-adv-x="1304" d="M78 895q6 33 33 80q59 82 159.5 152.5t237.5 123.5q119 47 234.5 72t220.5 25q215 0 342 -152q100 -117 100 -272q0 -45 -8 -93q-23 -125 -114 -241.5t-241 -220.5q-141 -98 -279 -148.5t-267 -50.5h-17q-8 0 -16 2h-27q-18 0 -24 -53q-20 -111 -28 -175q-7 -51 -7 -69 v-6q6 -6 11 -13.5t11 -13.5q23 -27 17 -55q-2 -29 -43 -82h2q-43 -59 -82 -59q-62 0 -62 100q0 42 11 102q6 53 34 166q31 109 37 162q4 16 -75 60q-86 48 -86 120q0 10 2 21q10 51 63 51q20 0 80 -59v2q39 -41 57 -47q-8 0 -4 8q27 158 99 407q106 346 184 346 q29 -1 57 -25q25 -21 25 -48v-8q-6 -27 -35 -72q-16 -27 -26.5 -39t-10.5 -10q-12 -25 -36.5 -95.5t-57.5 -185.5q-68 -219 -80 -291h2q104 0 209.5 32t204.5 91q170 106 273.5 217t121.5 217q4 23 4 48v16q-2 33 -10 63q-51 223 -342 224q-68 0 -171.5 -27t-225.5 -70 q-141 -51 -219 -102t-89 -100q0 -8 4.5 -20.5t16.5 -31.5q12 -25 19 -45t3 -39q-8 -47 -67 -47q-59 1 -97 49q-30 38 -30 84q0 12 2 25z" />
<glyph unicode="Q" d="M215 90q-7 52 -7 110q0 96 19 208q57 340 308 626q113 131 184 131q51 0 57 -39q92 152 181.5 232t166.5 80q174 0 191 -295q3 -38 3 -80q0 -142 -32 -328q-31 -178 -121 -403q-23 -47 -43 -95.5t-43 -99.5q-20 -47 -39.5 -87t-42.5 -89q49 -41 127 -100.5t191 -139.5 q127 -86 207 -136t106 -50q45 0 68 72q-4 8 2 28q18 111 65 111q51 0 64 -104q2 -24 2 -47q0 -38 -6 -74q-29 -160 -144 -160q-121 0 -444 238q-285 211 -322 225q-207 -147 -292 -148q-129 0 -222 78q-55 -108 -85 -108h-1q-36 0 -36 59q0 25 6 59q4 18 10 40t14 44 q-74 104 -92 242zM324 186q16 -106 61 -198q78 96 193 96q70 0 186 -45q104 -43 110 -43q47 0 170 360q53 160 86 280t50 202q26 156 26 261q0 212 -108 212q-55 0 -128 -91.5t-163 -263.5q-76 -150 -126 -277.5t-65 -207.5q-8 -47 -12 -76.5t-6 -46.5q8 14 18.5 24.5 t28.5 10.5q40 0 40 -52q0 -14 -3 -32q-4 -20 -16.5 -40.5t-30 -37t-39 -27t-41.5 -10.5q-76 0 -76 127q0 52 13 127q16 98 64 227.5t122 276.5q-16 0 -31 8q-12 6 -10 6q-41 -4 -125 -133q-68 -100 -112 -193t-60 -179l-8 -48q-14 -66 -14 -131q0 -43 6 -86zM465 -98 q-1 -3 -1 -6q0 -28 52 -56q53 -33 98 -33q25 0 99 35q67 29 67 37q2 12 -98 47q-53 16 -91 24.5t-56 8.5q-20 0 -43 -20.5t-27 -36.5z" />
<glyph unicode="R" horiz-adv-x="1286" d="M104 1022q10 66 100.5 120t254.5 101q125 35 231.5 53.5t188.5 18.5q438 0 530 -342q12 -49 12 -98q0 -34 -6 -68q-37 -211 -313 -424q-121 -92 -240 -152.5t-235 -95.5q-2 0 -6.5 -1t-8.5 -1h4q-10 -4 -25.5 -5t-31.5 -3q-4 -4 -18 -4q35 -33 122 -76t222 -98 q252 -111 364 -135q-4 4 -6 9t-6 9q-8 18 8 35l12 4q12 8 21 8q66 0 162 -61v2q87 -59 87 -130q0 -9 -1 -18q-6 -29 -24.5 -44t-55.5 -15q-29 0 -88 16q-184 53 -347 119t-306 139q-45 27 -102.5 56.5t-153.5 81.5q-29 -78 -39 -138q-2 -8 -11 -10q12 0 21 2q6 0 9 1t5 1 q50 0 50 -38q0 -5 -1 -11q-6 -33 -61 -100h2q-55 -74 -100 -74q-23 0 -38.5 23.5t-21.5 58.5q-2 23 -2 47q0 23 4 47q4 29 14.5 63.5t24.5 75.5q18 49 28.5 76t14.5 43q-35 31 -58.5 59.5t-19.5 51.5q2 16 32 28.5t83 12.5q31 117 59.5 233.5t61.5 235.5q111 407 192 407 q18 0 35 -14t27 -37t14 -48.5t0 -45.5q-4 -23 -33 -76l-32 -51v2q-2 -6 -6.5 -10t-6.5 -11h2q-16 -31 -40.5 -101.5t-59.5 -180.5q-37 -117 -59.5 -189.5t-26.5 -107.5q8 0 20 6h-2q113 33 230 92.5t227 132.5q129 94 204 189.5t91 187.5q5 27 5 52q-1 52 -21 96 q-30 64 -95 104q-57 33 -132.5 50.5t-174.5 17.5q-72 0 -184.5 -24t-267.5 -73q-23 -4 -35 -8t-23 -6q-20 -8 -28 -8q-10 -4 -21.5 -8.5t-15.5 -8.5q0 -6 10 -6q23 -8 35 -20.5t8 -28.5q-6 -41 -76 -59q-23 -4 -41 -8.5t-35 -4.5q-46 0 -70 34q-18 26 -18 55q0 10 2 20z" />
<glyph unicode="S" horiz-adv-x="1202" d="M27 -410q6 41 67 88q59 39 103 39q33 0 45 -47q2 -14 6 -14q12 0 33 4q113 33 222 83t214 122q260 166 291 340q2 14 2 27q0 41 -24 71q-32 39 -91 39q-39 0 -96.5 -16.5t-139.5 -44.5q-172 -68 -256 -68q-233 0 -233 186q0 30 6 64q16 104 110.5 241.5t243.5 290.5 q162 160 299.5 248t239.5 88q70 0 115 -74q18 -31 28 -65q5 -20 5 -40q0 -15 -3 -30q-4 -20 -15 -51t-34 -74q-33 -70 -39 -104q0 -4 5.5 -12.5t9.5 -12.5q10 -14 17 -25.5t5 -27.5q-6 -35 -51 -92q-53 -68 -94 -68q-57 0 -57 77q0 20 4 46q6 33 20 76t39 96q51 111 61 160 q4 29 -6 54.5t-35 25.5q-14 0 -24 -8h4q-307 -156 -508 -406h2q-190 -246 -209 -348q-2 -10 -2 -19q0 -51 62 -51q27 0 59.5 10.5t77.5 28.5q104 51 199.5 74t185.5 23q141 0 209 -88q50 -65 49 -161q0 -35 -6 -75q-33 -190 -234 -350q-170 -131 -350 -230 q-238 -127 -385 -127q-55 0 -100 31q-30 16 -42 39q-8 15 -8 34q0 11 3 23z" />
<glyph unicode="T" horiz-adv-x="1085" d="M-88 1212q10 53 131 93q31 8 94.5 17t155.5 19q74 10 187.5 22.5t254.5 27.5q25 2 38 8t24 18q33 66 71 66q29 0 38 -17.5t5 -54.5q113 8 221.5 16.5t206 13.5t180.5 8t144 3q98 0 98 -72q0 -11 -2 -24q-10 -66 -61 -66h-94q-55 0 -129 2q-76 2 -134 2h-96 q-37 0 -112.5 -3t-198.5 -11q-29 -2 -42 -3t-18 -3q-2 -4 -6 -15.5t-14 -33.5q-25 -70 -52.5 -151t-51.5 -175q-18 -82 -40 -164t-44 -166q-74 -270 -113 -424.5t-47 -195.5q0 -6 4 -6l16 8l-6 -2q25 10 39 10q30 0 30 -30q0 -7 -1 -15q-6 -31 -66 -107l6 5 q-66 -80 -100 -80q-66 0 -66 104q0 38 9 90q16 92 51 238.5t92 347.5q53 193 103.5 359.5t95.5 312.5q0 4 3 7t3 5q6 18 6 29q6 29 -14 28q-16 0 -93 -8t-212 -28q-57 -10 -103.5 -17.5t-81.5 -11.5q34 -16 34 -41q0 -4 -1 -8q-6 -45 -111 -45q-59 0 -139 22q-52 16 -74 40 q-18 20 -19 46q0 5 1 10z" />
<glyph unicode="U" horiz-adv-x="1255" d="M184 160q-1 25 -1 50q0 96 18 198q39 217 143.5 411.5t265.5 360.5q127 127 203 127q33 1 49 -23q10 -14 10 -39q0 -16 -4 -37q-2 -14 -13 -35.5t-25.5 -42t-31 -35t-30.5 -14.5q-4 0 -11 2t-14 7l2 -5q-8 0 -14 2t-10 5q-6 -2 -15.5 -8.5t-19.5 -14.5 q-127 -102 -231 -311q-96 -186 -127 -363q-17 -91 -16 -173q0 -100 24 -189q51 -207 219 -207q166 0 344 307q76 125 125 242t76 227v10v13q2 10 2 26v39q2 53 9 114.5t19 133.5q10 51 21.5 102.5t28.5 110.5q53 178 98 178q52 0 52 -149q0 -16 -1 -33q-4 -57 -8 -107.5 t-12 -95.5q-14 -78 -46 -190.5t-81 -261.5q-47 -147 -80 -258t-45 -183q-15 -84 -15 -142q0 -37 6 -65q16 -68 70 -69q31 0 73 15t95 50q61 35 97 54.5t42 19.5q49 0 49 -48q0 -8 -1 -18q-12 -66 -160 -143q-137 -72 -203 -72q-119 0 -176 119q-10 27 -16 142q0 45 -5 55 q-39 -59 -69.5 -99t-63.5 -69q-49 -47 -106.5 -67.5t-116.5 -20.5q-123 0 -207 67.5t-129 186.5q-31 94 -37 213z" />
<glyph unicode="V" horiz-adv-x="1662" d="M283 1397q12 74 98 112q63 29 131 29q139 0 240 -100h-2q86 -82 127 -219q29 -104 33 -255q1 -33 1 -67q0 -121 -12 -254q-8 -78 -30.5 -229.5t-59.5 -364.5q-12 -72 -18.5 -127t-8.5 -98q29 49 77 146.5t114 240.5q86 172 141 294t90 204q76 182 124 293.5t67 152.5 q178 336 329 336q119 0 183 -137v2q44 -89 44 -177q0 -30 -5 -59q-12 -67 -51 -67h-1q-25 0 -79 143q-25 63 -47.5 95t-51.5 32q-104 0 -311 -430q-16 -35 -104.5 -241t-247.5 -586q-98 -233 -168 -348t-111 -115q-86 0 -112 45q-12 22 -12 61q0 25 5 58q10 53 18.5 119.5 t18.5 152.5q12 100 21.5 170t13.5 106l40 288t17 149q9 100 9 183q0 137 -25 230q-63 248 -240 248q-78 0 -84 -37q-2 -10 3.5 -29.5t11.5 -29.5q4 -20 6 -29q2 -8 2 -14q-6 -35 -64 -35q-27 0 -50 13.5t-41 35.5q-16 24 -26 52q-5 16 -6 32q0 13 3 25z" />
<glyph unicode="W" horiz-adv-x="2109" d="M326 1399q12 68 96 104q31 16 64.5 23.5t64.5 7.5q127 0 215 -80t135 -227q27 -97 34 -235q2 -42 2 -87q0 -103 -11 -221q-8 -92 -28.5 -232.5t-53.5 -328.5q-14 -82 -22.5 -147.5t-8.5 -118.5q41 88 129 290.5t209 489.5l23 63q8 20 16 42t16 42q57 125 127 125 q41 1 61 -69q16 -58 16 -153q0 -19 -1 -40q-2 -18 -8 -96t-21 -209q-14 -147 -17 -271q-1 -53 -1 -100q0 -63 2 -116q16 35 41 97t57 148q41 125 84 242t83 220.5t78 188.5t71 146q141 272 291.5 413.5t306.5 141.5q114 0 114 -90q0 -12 -2 -27q-20 -114 -171 -114h-3h-24 q-14 0 -29 4h-43q-53 0 -123 -78t-149 -225q-59 -111 -128 -268.5t-147 -368.5q-23 -59 -46 -120t-46 -120t-43 -119.5t-43 -120.5q-39 -86 -68.5 -130t-60.5 -44q-82 0 -119 70q-7 12 -7 81q0 120 22 413q14 156 19 262q4 76 4 125q0 20 -1 36q-23 -41 -46.5 -104 t-55.5 -149q-66 -174 -109 -288t-65 -165q-106 -246 -191 -246q-72 0 -129 92q-5 9 -5 40q0 126 87 620q29 174 42 324q8 93 8 175q0 51 -3 99q-16 182 -77.5 287.5t-166.5 105.5q-12 0 -26.5 -4t-32.5 -8h2q-16 -6 -23.5 -11.5t-9.5 -7.5q0 -2 6.5 -9t12.5 -15 q36 -27 36 -53q0 -4 -1 -7q-2 -16 -16.5 -26.5t-41.5 -10.5q-154 0 -154 109q0 15 3 33z" />
<glyph unicode="X" horiz-adv-x="1814" d="M197 -76q6 33 27.5 52.5t56.5 19.5q51 0 114 -53q14 -37 156 -37q119 0 230.5 58.5t209.5 162.5q-6 67 -6 135q0 26 1 52q3 94 20 188q16 86 46.5 185t82.5 214q8 18 11 29.5t5 15.5q2 9 2 19q1 39 -27 77q-34 48 -108 88q-66 31 -134.5 50.5t-133.5 19.5q-51 0 -134 -29 v5q-86 -29 -92 -60q-2 -6 3 -15t12 -18q10 -10 20 -26.5t8 -28.5q-6 -33 -71 -57q-29 -10 -48.5 -13.5t-33.5 -3.5q-66 0 -102 44q-26 32 -26 78q0 16 3 34q10 55 62 99t145 79q72 27 140.5 40t121.5 13q68 0 138.5 -14t135.5 -49q45 -25 90 -54.5t88 -66.5 q18 -20 31.5 -35.5t20.5 -25.5q8 10 21 20t30 27q39 29 81 58.5t70 41.5q47 23 101.5 37t103.5 14q66 0 133.5 -11t132.5 -30q29 -8 48.5 -26.5t23.5 -42.5q3 -9 3 -21.5t-3 -27.5q-6 -37 -26.5 -52.5t-55.5 -15.5q-25 0 -53.5 11.5t-56.5 39.5q-16 37 -162 37 q-190 0 -330 -211q31 -100 36 -200q1 -24 1 -47q0 -76 -12 -152q-14 -78 -48 -164t-88 -176q-37 -59 -57 -91t-20 -36q-2 -10 -1 -24.5t3 -30.5h-2q35 -162 151 -267q122 -110 280 -110h3q45 0 117 30q68 27 73 58q2 10 -4 21.5t-14 21.5q-10 10 -18.5 21.5t-4.5 29.5 q6 33 72 57q47 16 80 17q68 0 104 -47q27 -35 26 -83q0 -16 -3 -34q-18 -106 -191 -178q-66 -27 -132 -41.5t-115 -14.5q-342 0 -484 310q-2 8 -5 11t-5 11l-2 -4q-6 16 -12.5 34.5t-12.5 37.5q-20 63 -22 63q-6 -6 -16.5 -13t-26.5 -20q-4 -4 -8 -6t-9 -6 q-45 -33 -90 -56.5t-90 -45.5q-125 -53 -235 -53q-66 0 -133.5 10t-137.5 28q-59 18 -71 70q-5 9 -5 24q0 11 3 25zM1118 299q8 16 17.5 41t21.5 55q37 113 47 170q22 119 22 191q0 16 -1 30q-10 -27 -26.5 -89t-39.5 -165q-8 -33 -15 -61.5t-11 -56.5q-8 -41 -10.5 -66.5 t-4.5 -48.5z" />
<glyph unicode="Y" horiz-adv-x="1425" d="M6 -462v20q0 60 10 127q10 61 32 124.5t50 129.5q96 186 197 186q71 0 71 -98q0 -33 -8 -76q-14 -90 -59 -90q-20 0 -30.5 11t-16.5 26q-4 6 0 6q-25 -2 -59 -80q-31 -66 -43 -131q-7 -42 -7 -78q0 -61 19 -109q14 -47 47 -67.5t78 -20.5q59 0 143 76t184 215 q92 135 149.5 244.5t70.5 181.5q4 23 4 54q0 58 -12 144q-19 132 -66 341q-98 420 -168 420q-20 0 -72 -64q-78 -84 -121 -84q-39 0 -39 44q0 9 2 20q12 72 89 184q41 66 79.5 101.5t71.5 35.5q49 0 101.5 -80t99.5 -217q29 -86 55.5 -187.5t42.5 -193.5q14 -59 21.5 -131.5 t11.5 -156.5l2 2q0 -20 2 -25q10 23 41 94.5t72 175.5q59 137 119.5 278.5t119.5 276.5q25 57 43.5 97.5t30.5 60.5q55 74 147 74q55 0 84 -68q10 -23 13 -48v-20q0 -15 -2 -32q-6 -27 -31 -37h4q-16 -6 -41 -2q-10 2 -29 2h-41q-18 0 -79.5 -118t-161.5 -359 q-166 -385 -271.5 -617.5t-148.5 -312.5q-283 -512 -557 -512q-156 0 -215 139q-27 55 -29 124z" />
<glyph unicode="Z" horiz-adv-x="1255" d="M117 -109q20 119 213 345q45 53 79.5 93t57.5 68q27 31 45 54q0 6 -8 6q-4 0 -10 -2q-4 -2 -11.5 -4t-11.5 -5q-14 -4 -27.5 -8t-17.5 -4q-35 0 -51 58q-10 20 -10 38t2 33q10 59 135 60q8 0 22.5 -2.5t26.5 -2.5q16 -2 33 -2h26q20 0 33.5 1t25 4.5t20.5 10.5t26 21 q43 41 99 99.5t126 136.5q68 74 111 127t59 82q-23 -4 -41 -4h-37q-90 0 -233 65q-70 31 -122 46.5t-93 15.5q-18 0 -43 -9.5t-62 -27.5q-72 -39 -110 -39q-39 0 -45 80v41q0 20 4 37q10 63 88 63q66 0 154.5 -17.5t203.5 -50.5q111 -35 196 -51t144 -16q45 0 86 11t76 36 q20 12 46 35.5t52 54.5q29 33 48.5 46t33.5 13q71 0 71 -66q0 -14 -3 -30q-4 -31 -62 -80q-10 -6 -18 -11t-14 -11q-18 -18 -39 -29q-35 -31 -83 -77t-96 -95q-47 -49 -92 -97t-92 -95q-31 -29 -72 -75t-96 -106l-33 -30v-2l2 2q14 0 40 1t53 3q29 2 55.5 5t42.5 3 q202 0 202 -75q0 -6 -1 -11q-6 -47 -93 -80q-53 -25 -96 -29q-12 0 -16 9l-12 8q0 4 -1.5 10t-1.5 10l9 15q-12 6 -38 8t-54 2q-98 0 -168 -12q-20 -4 -39 -14.5t-33 -24.5q-43 -45 -89 -98.5t-97 -112.5q-53 -66 -87 -114t-49 -77q10 2 29 2q129 0 428 -227 q274 -219 346 -219q29 0 59.5 11t69.5 38q10 6 30.5 9t45.5 3q-16 4 -12 25.5t24 21.5q18 0 38 -8t35 -22.5t23.5 -33t6.5 -36.5q-6 -33 -35 -60.5t-72 -48.5q-76 -38 -136 -38h-3q-160 0 -356 116q-74 53 -149 108.5t-153 108.5l-2 -2q-166 113 -272 113q-20 0 -45 -57 q-41 -96 -88 -97q-56 0 -56 80q0 23 5 53z" />
<glyph unicode="[" horiz-adv-x="661" d="M125 -328q78 383 140.5 705.5t109.5 591.5q4 29 11 73.5t15 98.5q4 16 5 35q0 18 4 38q6 35 11 71t11 70t10 61.5t9 45.5q6 33 18 51.5t32.5 26.5t49.5 8h65h70q43 2 84 2h64l12 -4q10 0 16 -6t4 -16q-8 -63 -84 -70q-84 -4 -90 -6q-23 -10 -42 -29.5t-34 -56.5 q-16 -39 -35.5 -129t-48.5 -234q-68 -375 -123 -583.5t-71 -255.5q10 10 27.5 7t13.5 -20q-29 -170 -42 -261t-3 -107q16 -41 106 -51q113 -13 107 -50q-8 -49 -80 -49q-145 0 -229 5.5t-103 17.5q-6 2 -9 9t-1 11z" />
<glyph unicode="\" horiz-adv-x="690" d="M301 1307q2 14 14.5 27.5t27.5 24.5t31.5 18t28.5 7q29 0 41 -49q4 -27 9.5 -59.5t9.5 -67.5q8 -68 19.5 -151.5t21.5 -184.5q0 -10 2 -28.5t4 -24.5l76 -473q37 -213 55 -336t18 -125q-2 -12 -14 -23.5t-27.5 -20.5t-32 -15t-26.5 -6q-27 0 -47 49q-16 72 -48 264.5 t-75 480.5q-23 147 -40 268.5t-28.5 210.5t-16.5 144t-3 70z" />
<glyph unicode="]" horiz-adv-x="704" d="M23 -346q2 66 77 72q37 2 62.5 4t36.5 4q45 18 67 84q10 39 24.5 105.5t31.5 158.5q217 1243 192 1321q-14 43 -137 55q-41 2 -58.5 12.5t-15.5 26.5q10 55 74 55q328 0 348 -39q-25 -121 -40 -204.5t-23 -128.5l-76 -428q-29 -160 -57.5 -352.5t-61.5 -422.5 q-18 -131 -30.5 -208.5t-12.5 -83.5q-4 -25 -19.5 -37.5t-50.5 -12.5q-82 0 -156.5 -1t-142.5 -3q-8 0 -16 9z" />
<glyph unicode="^" horiz-adv-x="894" d="M219 479q2 8 22.5 43t61.5 90q10 12 26.5 37t22.5 31q33 47 59.5 86t47.5 68v-3q20 41 50 89.5t71 103.5q31 43 75 43q16 0 21.5 -8t9.5 -25q16 -59 42 -150t60 -212l3 2q16 -43 18 -94.5t-4 -85.5h45q-6 -41 -86 -41q-53 0 -109 231q-20 70 -31.5 117t-19.5 76 q-31 -47 -57.5 -93.5t-57.5 -93.5q-86 -137 -151 -207q-37 -33 -88 -32q-37 0 -31 28z" />
<glyph unicode="_" horiz-adv-x="1228" d="M-117 -274l21 118q6 25 28 25h1194q27 0 21 -25l-21 -118q-4 -25 -28 -25h-1194q-25 0 -21 25z" />
<glyph unicode="`" horiz-adv-x="581" d="M319 1049q10 53 80 53q68 0 101 -49l-2 2q2 -14 8 -33q4 -16 10 -34.5t16 -41.5l11 -35v2q18 -55 27.5 -91t9.5 -44q4 -4 1 -10t-6 -10l-8 -10q-6 -6 -14 -12.5t-12 -2.5q-29 2 -131 141q-96 139 -91 175z" />
<glyph unicode="a" horiz-adv-x="782" d="M-53 193q2 16 78 92l84 84l-5 -2q135 178 234 178q29 0 55.5 -10.5t48 -29t33.5 -41t12 -46.5q16 14 29 14q75 0 75 -55q0 -8 -1 -17q-4 -29 -11.5 -44t-15.5 -35q-10 -23 -16 -42.5t-8 -29.5q-3 -20 -3 -36q0 -46 27 -46q70 0 123 53l21.5 21.5l21.5 21.5 q12 10 23.5 24.5t27.5 26.5q2 4 8.5 6.5t8.5 2.5q53 0 53 -49q0 -9 -2 -21q-16 -74 -125 -154q-51 -35 -96 -54t-80 -19q-98 0 -117 90v71v27q-18 -23 -37.5 -46.5t-36.5 -45.5q-37 -47 -77.5 -71.5t-81.5 -24.5q-96 0 -129 61q-4 18 -10.5 42t-10.5 56q-10 -8 -24.5 -13 t-24.5 -5q-53 0 -53 47q0 8 2 19zM174 221q-6 -32 -6 -54q0 -48 27 -48q61 0 165 143q25 35 45.5 63.5t38.5 51.5q-16 0 -34.5 5t-34.5 11l2 -2q-18 4 -44 9.5t-20 7.5q-49 -4 -86 -64q-23 -29 -35 -60.5t-18 -62.5z" />
<glyph unicode="b" horiz-adv-x="716" d="M-25 213q0 4 27 48t82 112q51 72 83 112.5t36 46.5q25 100 50.5 205t47.5 205q35 123 71 225.5t72 180.5q35 69 73 69h1q61 0 61 -92q0 -34 -8 -80q-20 -121 -71 -278.5t-123 -337.5q-4 -10 -14.5 -32t-26.5 -54q-12 -23 -20.5 -43.5t-10.5 -34.5q-24 -137 -24 -212 q0 -38 6 -60q10 -37 21 -58.5t28 -21.5q51 0 102 88h-2q4 16 15.5 43.5t27.5 70.5q4 10 7 15.5t8 17.5q-38 74 -38 162q0 39 7 80q12 86 67 86q23 0 41.5 -34t28.5 -87q8 -41 11 -81q1 -17 2 -31q0 -19 -3 -33q8 -20 21.5 -35t30.5 -15q2 0 5 2.5t13 4.5q10 4 20.5 9t26.5 5 q23 -1 43 -27q17 -22 17 -45q0 -5 -1 -10q-6 -33 -30.5 -48t-73.5 -15q-23 0 -51.5 11t-50.5 27q-102 -303 -267 -303q-119 0 -137 127q-2 45 -3 90t-5 93q-6 -8 -16.5 -20.5t-26.5 -31.5q-72 -84 -102 -84q-50 0 -50 48q0 9 2 20z" />
<glyph unicode="c" horiz-adv-x="573" d="M18 266q10 51 34 106.5t69 114.5q100 139 207 140q157 0 157 -137q0 -23 -4 -50q-23 -116 -93 -116h-1q-31 0 -56.5 23.5t-19.5 53.5q0 6 5.5 20.5t15.5 24.5v-2q2 4 5 8.5t5 8.5l4 8q6 35 -37 35q-51 0 -102 -86q-25 -39 -41 -75t-21 -71q-4 -21 -3 -40q0 -42 18 -72 q29 -51 88 -51q61 0 138 36.5t167 114.5q4 2 9 5t9 3l17 4q48 -1 48 -52q0 -9 -1 -19q-4 -10 -12.5 -22.5t-16.5 -22.5q-94 -86 -191.5 -132.5t-195.5 -46.5q-208 0 -208 204q0 39 7 85z" />
<glyph unicode="d" horiz-adv-x="880" d="M-6 182q6 37 55 86q45 41 55 60q29 53 53.5 98t35.5 61q2 4 5 11.5t3 5.5q84 119 192 119q16 0 36 -9.5t42 -19.5q23 -14 47 -19q10 14 21.5 65.5t29.5 147.5q31 150 52.5 251.5t35.5 148.5q33 111 69 170t73 59q14 0 27.5 -13t20.5 -31.5t10 -41t1 -41.5 q-6 -39 -27.5 -113.5t-56.5 -191.5q-53 -180 -90 -318.5t-53 -238.5q-23 -122 -23 -195q0 -21 2 -37q8 -76 45 -75q68 0 113 51q10 12 23.5 25.5l23.5 23.5q16 18 29.5 33.5t17.5 19.5t10.5 6.5t10.5 2.5q53 0 53 -49q0 -9 -2 -21q-16 -74 -125 -154q-108 -73 -174 -73h-2 q-92 0 -123 108v29q0 14 -4 33l-2 -4q-4 16 -3 38.5t-3 45.5q-25 -53 -45.5 -91.5t-34.5 -60.5q-35 -53 -78 -83t-84 -30q-86 0 -127 70q-2 4 -14.5 33.5t-28.5 75.5q-12 -10 -24.5 -18.5t-28.5 -8.5q-41 0 -41 39q0 9 2 20zM225 260q-4 -18 -3 -35q0 -30 11 -57 q6 -23 21.5 -32t38.5 -9q16 0 42.5 38t55.5 93q29 59 47.5 108.5t24.5 84.5q0 4 -5 10t-22 10q-18 6 -32.5 11t-24.5 5q-57 0 -100 -81q-23 -35 -35.5 -72t-18.5 -74z" />
<glyph unicode="e" horiz-adv-x="548" d="M-53 172q0 -2 4 10v-2q0 2 2 3t2 3q2 0 2 2q0 -2 -2 -2q4 18 18 23q29 10 48.5 28.5t23.5 43.5q10 47 34.5 99t61.5 103q47 63 95.5 97t99.5 34q126 0 126 -106q0 -17 -3 -37q-6 -37 -31 -76t-72 -86v2q-39 -37 -78.5 -63.5t-74.5 -42.5t-33 -12q-6 -33 23.5 -53.5 t62.5 -20.5q35 0 67.5 7t69.5 26q25 14 50.5 28.5t50.5 32.5q27 25 44 36t23 11q41 0 41 -50q0 -15 -4 -34l-4 -16q-78 -72 -178 -119q-104 -53 -197 -53q-72 0 -129 69q-4 4 -11 19.5t-20 50.5q-25 -23 -37 -27t-28 -4q-49 0 -49 52q0 11 2 24zM-49 182q0 2 2 2t2 2 q0 -4 -4 -4zM166 305q18 10 42.5 25.5t49.5 38.5q33 31 52.5 56.5t23.5 41.5q4 22 -24 22h-3q-27 0 -80 -75v2q-23 -33 -37 -60.5t-24 -50.5z" />
<glyph unicode="f" horiz-adv-x="802" d="M4 659q10 51 68 52q109 0 207 141v-2q37 53 88 161.5t122 270.5q66 162 116 241t79 79q58 0 58 -75q0 -21 -5 -48q-20 -127 -86 -279q-16 -41 -46 -90t-70 -106q-53 -74 -83 -117t-44 -64q-10 -20 -24.5 -51t-27.5 -72q-10 -31 -15 -53t-15 -55h12q37 0 81 13t101 38 q129 55 187 55q50 0 50 -56q0 -14 -3 -32q-8 -51 -121 -73q-25 -4 -36 -5.5t-17 -1.5h-7l-2 -6q4 -4 11.5 -10t9.5 -8q192 -135 192 -378q0 -59 -12 -126q-37 -209 -170 -408q-167 -253 -360 -253h-2q-45 0 -83 25.5t-69 72.5q-47 70 -68 164q-12 52 -12 126q0 114 29 279 q10 55 36.5 155.5t76.5 264.5h-37q-103 0 -103 67q0 9 2 19q8 41 59.5 62.5t141.5 21.5q4 18 8 31.5t6 29.5q-4 -6 -14 -12t-23 -16q-35 -23 -63.5 -36t-58.5 -13q-65 0 -65 62q0 7 1 15zM137 -354q25 -166 135 -166q66 0 131.5 53t120.5 145q47 78 79 164t48 172q8 48 8 93 q0 36 -5 69q-11 76 -48 135q-41 63 -101.5 98t-142.5 35h-45q-25 0 -41 -2q-49 -156 -81.5 -284.5t-51.5 -231.5q-14 -86 -14 -165q0 -60 8 -115z" />
<glyph unicode="g" horiz-adv-x="702" d="M-102 -498q-7 31 -7 65q0 36 7 75q27 164 241 311q86 61 173 99t171 54q18 94 33 209q-10 -12 -18.5 -19t-16.5 -17l-41 -54q-123 -131 -221 -131t-146 58q-36 44 -36 108q0 22 4 45q20 111 168 252q150 147 258 148q47 0 90 -43q44 -42 44 -83q0 -5 -1 -10q-2 -4 -2 -8 t-2 -6q57 -13 57 -105q0 -34 -8 -79q-2 -12 -7 -37t-9 -41q-2 -8 -4 -17.5t-2 -13.5q-4 -25 -10.5 -56.5t-10.5 -72.5q-2 -10 -1 -11t-1 -13q31 -4 57.5 -13.5t53.5 -21.5q73 -38 73 -97q0 -9 -2 -18q-6 -41 -43 -41q-39 0 -88 35h2q-23 10 -42 16t-33 8q-14 -51 -39 -75 q12 2 21 -2t5 -19q-100 -592 -399 -592q-74 0 -129 27t-91 74t-48 112zM20 -391q-2 -11 -2 -22q0 -57 43 -101q51 -53 117 -53q190 0 268 444q2 12 6.5 30.5t10.5 65.5q-59 -14 -123 -44.5t-135 -84.5h2q-164 -121 -187 -235zM193 315q-2 -15 -2 -27q0 -46 37 -46h1 q51 0 121 69v-2q10 16 34 48t62 83q4 4 9.5 11.5t9.5 13.5l-2 -2q16 20 30.5 37.5t24.5 27.5q-10 2 -19.5 7.5t-21.5 9.5q-14 4 -25.5 8t-21.5 4q-59 0 -141 -86q-45 -47 -67.5 -84t-28.5 -72z" />
<glyph unicode="h" horiz-adv-x="802" d="M-27 184q6 35 138 185q59 72 94 119t41 69q2 4 14 78q14 78 43 198.5t74 286.5q98 356 155 469q10 16 24.5 28.5t31.5 12.5q65 0 65 -84q0 -25 -6 -57q-18 -100 -52 -222t-75 -257q-37 -115 -73.5 -236t-75.5 -235q-33 -111 -53.5 -185.5t-28.5 -120.5q0 -10 -4 -10l2 -2 q12 16 32.5 50t45.5 75q94 172 176 172q70 0 100 -166q25 -133 47 -133q20 0 86 51h2q55 0 55 -55q0 -10 -2 -22q-4 -23 -20 -45.5t-38.5 -41t-48.5 -29.5t-46 -11q-47 0 -79 40.5t-56 118.5q-10 35 -17.5 59.5t-11.5 41.5q-6 20 -8 32q-27 0 -119 -176q-109 -209 -166 -209 q-69 0 -69 82q0 23 6 54q2 10 5 26.5t7 34.5q6 18 10 34.5t6 26.5q6 41 0 41q-2 0 -53 -67q-35 -49 -61.5 -70.5t-38.5 -21.5q-23 1 -43 23q-16 19 -16 39q0 5 1 9z" />
<glyph unicode="i" horiz-adv-x="468" d="M-39 186q6 29 98 105q25 20 49.5 44.5t41.5 47.5q2 2 17 27.5t48 81.5q20 35 47 34q72 0 72 -54q0 -8 -2 -17q-4 -23 -13.5 -53.5t-25.5 -73.5q-12 -41 -21.5 -70t-11.5 -45q-3 -18 -3 -32q0 -54 48 -54q55 0 119 82q47 53 69.5 79.5t34.5 26.5h2q54 0 54 -47 q0 -10 -2 -22q-8 -63 -125 -162q-119 -96 -183 -96q-142 0 -142 166q0 25 3 55q-4 -6 -13 -14.5t-20 -18.5q-58 -65 -95 -65h-1q-47 0 -47 51q0 11 2 24zM252 698q18 117 88 117q45 0 45 -66q0 -20 -4 -47q-18 -108 -83 -108h-1q-49 0 -49 63q0 18 4 41z" />
<glyph unicode="j" horiz-adv-x="348" d="M-152 -549q8 57 43 57q18 0 21.5 -7t7.5 -13q8 -12 14 -12q18 0 54.5 83t79.5 216q78 244 102 387q12 57 12 82q0 9 -2 14q-14 -12 -33.5 -29.5t-42.5 -35.5q-8 -4 -27.5 -21.5t-29.5 -28.5q-8 -8 -20 -8q-56 0 -56 58q0 12 2 26q2 16 121 160q63 72 97 112.5t42 51.5 q4 4 11.5 8t11.5 4h3q73 0 73 -140q0 -71 -19 -179q-20 -119 -51 -243t-74 -253l2 2q-133 -414 -260 -414q-86 0 -86 84q0 18 4 39zM248 776q18 98 84 98q14 0 24.5 -12t16.5 -30.5t7 -39.5v-12q0 -13 -1 -22q-10 -49 -26.5 -72.5t-49.5 -23.5q-59 0 -59 72q0 19 4 42z" />
<glyph unicode="k" horiz-adv-x="663" d="M-12 471q6 27 110 107q53 43 79 62t32 24q23 29 58.5 137t76.5 266q37 162 79 247t87 85q59 0 59 -70q0 -18 -4 -41q-25 -143 -106 -352q-18 -53 -37 -105.5t-35 -98.5t-28.5 -82t-18.5 -52q-27 -96 -46.5 -185t-31.5 -163l-6 -29q23 20 62.5 83t101.5 167 q80 133 144.5 201.5t107.5 68.5t61.5 -17t9.5 -58q-6 -31 -20 -64q-23 -43 -39 -65.5t-39 -22.5t-35 18q-4 4 -7 6.5t3 4.5q-16 -4 -46 -39t-68 -96q-41 -63 -66 -110.5t-29 -74.5q-2 -33 283 -286q125 -111 206 -174.5t128 -79.5q0 8 10 14l8 8q6 4 13.5 7t11.5 1 q37 -10 88 -53h-2q58 -43 58 -74q0 -3 -1 -6q-12 -59 -102 -59q-133 0 -428 248q-88 74 -176 159.5t-181 182.5q-8 -10 -21 -26.5t-26 -33.5q-52 -71 -83 -71h-1q-51 0 -67 65q-4 22 -4 46.5t4 51.5q2 10 11 43t19 80q4 10 8.5 38t14.5 75q4 23 10 50.5t12 59.5 q-89 -75 -138 -75h-1q-64 0 -64 45q0 6 1 12z" />
<glyph unicode="l" horiz-adv-x="675" d="M-8 211q6 35 41 72q25 18 36 28.5t13 12.5q10 16 19.5 51t19.5 94q20 113 59 251t92 279q39 96 79 175t80 135.5t80 87t77 30.5q63 0 88 -86q10 -29 10 -61q0 -33 -4 -61q-16 -88 -60 -206t-122 -265q-72 -135 -137.5 -243t-129.5 -196v-12q1 -29 9 -55q10 -30 26 -60 q41 -61 119 -61q82 0 197 78q63 43 97 65.5t44 22.5q47 0 47 -50q0 -11 -2 -24q-4 -12 -14.5 -30.5t-30.5 -39.5q-80 -78 -177 -123t-202 -45q-174 0 -221 207l-4 -2q-18 -16 -39 -29.5t-37 -13.5q-55 0 -55 52q0 10 2 22zM270 569q10 23 34 65t58 107q45 84 76 154t54 113 v-2q29 63 44 113t21 87q6 34 6 49q0 12 -4 13q-27 0 -66.5 -76t-99.5 -223q-47 -129 -79.5 -231.5t-43.5 -162.5v-6z" />
<glyph unicode="m" horiz-adv-x="958" d="M-55 170q2 10 12 21.5t23 21.5q20 27 112 160q104 141 146 141q48 0 74 -40q19 -29 19 -63q0 -13 -3 -26q-4 -20 -13.5 -51t-25.5 -72l-15 -29q14 20 28.5 41t35.5 50q130 192 193 192h1q74 0 93 -90q2 -22 2 -46q0 -39 -6 -83q-2 -8 -4.5 -18.5t-6.5 -20.5q43 88 66 121 q82 135 158 135q91 0 91 -175q0 -89 -24 -224q-4 -23 -8 -48.5t-10 -54.5l-13 -61q-14 -88 -14 -134q0 -18 2 -30q2 -4 4 -6q10 -23 20.5 -49.5t6.5 -53.5q-6 -41 -24.5 -58t-49.5 -17q-57 0 -78 53q-3 15 -3 44q0 26 2 60q5 76 22 211q36 250 36 323q0 11 -1 17 q0 10 -1 19.5t-1 13.5v10q-8 0 -101 -172q-55 -106 -95 -156.5t-63 -50.5q-65 0 -65 94q0 33 8 78q2 10 5 29t7 35q4 14 7.5 31.5l5.5 27.5q10 48 10 66q0 12 -4 12q-14 0 -123 -172q-66 -102 -118 -151.5t-89 -49.5q-72 0 -72 81q0 22 5 50q6 37 34 111q4 10 7.5 20.5 t7.5 20.5q-4 -8 -11.5 -17.5t-13.5 -19.5q-41 -55 -75.5 -82.5t-69.5 -27.5q-45 0 -45 40q0 8 2 19z" />
<glyph unicode="n" horiz-adv-x="749" d="M-39 182q4 29 41 66l-2 -2q104 129 168 217l-2 -4q12 18 32.5 47t45.5 63v-2q4 6 14 14.5t27 12.5q33 -4 51 -42q14 -28 14 -56q0 -9 -2 -19q-4 -25 -14 -59.5t-23 -77.5q-10 -27 -15 -46.5t-9 -37.5q12 18 29.5 40.5t39.5 57.5q106 164 176 164q35 0 62 -43t39 -123 q12 -59 23.5 -96t21.5 -37q14 0 41 19q25 16 39 24t22 8h1q40 0 40 -50q0 -12 -2 -27q-4 -25 -21.5 -44.5t-42 -33t-51 -20.5t-51.5 -7q-39 0 -64.5 21.5t-45.5 60.5q-6 12 -14.5 42t-18.5 87l-10 55q-16 0 -127 -168q-122 -194 -177 -194h-1q-61 0 -61 55q0 12 3 27 q2 12 7.5 36.5t13.5 47.5q4 23 9 43t7 35q8 37 0 36q-6 0 -14 -13t-41 -54q-33 -45 -60.5 -68.5t-40.5 -23.5q-23 -1 -42 21q-16 18 -16 39q0 4 1 9z" />
<glyph unicode="o" horiz-adv-x="575" d="M-41 172q2 10 17.5 28.5t39.5 43.5q23 18 34 36.5t16 34.5q102 272 243 273q68 0 68 -47q0 -7 -2 -15q6 2 10 3t14 1q39 0 93 -34q10 4 26.5 14t36.5 27q2 2 8 2h45q-16 4 -12 25.5t25 21.5q49 0 49 -48q0 -10 -2 -22q-6 -35 -32 -63.5t-75 -51.5q15 -32 15 -78 q0 -31 -7 -69q-18 -102 -94 -195q-92 -104 -192 -104q-49 0 -89 20.5t-75 57.5q-25 23 -39 53.5t-19 58.5q-39 -27 -55 -26q-25 0 -38 12q-10 9 -10 28q0 6 1 13zM195 236q2 -38 12 -72q14 -33 32.5 -54.5t47.5 -21.5q23 0 48 15.5t46 33.5q20 23 32.5 51.5t16.5 57.5 q8 46 8 73q0 23 -6 33q-6 -6 -20 -6q-46 0 -70 30q-18 23 -18 55q0 11 2 22q2 8 2 14t4 12q-8 -4 -15 -8q-23 -10 -38 -23.5t-31 -29.5q-18 -23 -31.5 -49.5t-17.5 -59.5q-5 -26 -5 -54q0 -10 1 -19z" />
<glyph unicode="p" horiz-adv-x="690" d="M-14 193q4 20 22 51q16 23 33.5 50.5t40.5 65.5q12 18 25.5 42t29.5 51l-2 -2q6 16 20.5 43.5t43.5 78.5q25 20 49 21q68 0 80 -62q4 -16 1 -44.5t-10 -69.5q-4 -39 -6 -60.5t-6 -25.5q6 2 5 19.5t20 54.5q51 92 94 139v-2q63 84 135 84q51 0 85 -28t56 -75 q14 -41 22 -88q3 -23 3 -45q0 -24 -4 -47q-10 -53 -34.5 -108.5t-61.5 -112.5q-98 -147 -203 -148q-37 0 -82 13q-12 2 -28.5 5t-28.5 5q-6 -37 -12.5 -90t-16.5 -125q-6 -76 -14.5 -132.5t-14.5 -94.5q-49 -270 -135 -271q-18 0 -32.5 14.5t-22.5 35t-11 45t1 42.5 q4 27 13 67t21 93t21.5 90t13.5 66q6 31 13.5 71.5l17.5 94.5q4 16 8 40.5t8 41.5q4 23 8.5 42t8.5 42q10 51 18 92t12 69q10 59 3 60q-8 0 -14.5 -15.5t-35.5 -62.5q-66 -100 -96 -100q-29 0 -48 23q-14 18 -14 42q0 7 1 15zM332 154q0 -8 6 -14q8 -9 21.5 -15t27.5 -10 t27 -4q63 0 112 75q44 64 60 150q5 28 5 50q0 83 -69 83q-10 0 -35.5 -35t-68.5 -100q-35 -63 -58 -108q-28 -55 -28 -72z" />
<glyph unicode="q" horiz-adv-x="714" d="M109 197q25 139 153 284q145 158 287 158q20 0 42.5 -12.5t40 -33t27 -44t5.5 -43.5q0 -6 -5 -14q4 0 6.5 1t6.5 1q73 0 73 -80q0 -18 -4 -41q-10 -59 -32.5 -146.5t-57.5 -203.5q-35 -117 -57.5 -204t-32.5 -147q-13 -74 -13 -125q0 -30 5 -51q4 -6 10 -23.5t17 -41.5 q15 -44 15 -69q0 -7 -1 -13q-12 -63 -64 -64q-72 0 -102 137q-8 31 -8 78q0 71 18 178q20 119 148 578q-6 -8 -13.5 -15.5t-15.5 -17.5q-37 -45 -67.5 -74.5t-55.5 -50.5q-95 -65 -189 -65h-3q-76 0 -111 45q-26 33 -26 81q0 18 4 38zM250 225q-2 -7 -2 -14q0 -31 43 -31 q57 0 131 70q16 18 49 55t86 96q35 43 64 70h-3q-16 0 -31.5 2t-33.5 6l-31.5 7t-21.5 3q-29 0 -68 -25.5t-82 -70.5q-88 -98 -100 -168z" />
<glyph unicode="r" horiz-adv-x="604" d="M-12 217q4 27 110 137q98 96 103 129q2 4 -1 15.5t-3 21.5q-6 16 -7 31q0 14 3 24q14 78 102 78q62 0 62 -68q0 -14 -3 -30q-1 -6 -1 -13q0 -36 48 -67q67 -45 67 -105q0 -8 -1 -16q-8 -27 -45 -92q-18 -29 -26.5 -49t-12.5 -39q-6 -41 10 -41q51 0 148 86q57 53 92 78 t41 25q31 0 41 -14q7 -10 7 -31q0 -8 -1 -17q-14 -72 -154 -174q-66 -47 -117 -72.5t-88 -25.5q-116 0 -116 109q0 21 4 46q6 39 35 103q16 35 24 56.5t10 33.5q4 23 -28 49q-4 4 -8 9t-7 12q-25 -51 -83 -127q-96 -123 -154 -123q-53 0 -53 43q0 8 2 18z" />
<glyph unicode="s" horiz-adv-x="567" d="M-123 106q2 16 13.5 32t29.5 36q18 18 40 37.5t40 38.5l72 72q47 47 79.5 87t51.5 68l-4 -6l30 94q29 86 80 86q74 0 74 -74q0 -16 -4 -36q-2 -8 -7 -22.5t-14 -26.5h4l-16 -33q0 -6 10.5 -29.5t34.5 -58.5q23 6 44.5 8t45.5 2q125 0 125 -77q0 -10 -2 -21 q-12 -70 -88 -70q-16 0 -22.5 7t-10.5 18q-4 8 -10 15t-22 7h-2h-3q20 -49 26 -87q3 -18 2 -35q0 -19 -3 -36q-6 -37 -25.5 -65.5t-48 -48t-63.5 -29.5t-72 -10q-163 0 -163 126q0 18 3 38q6 31 22.5 62.5t40 60t53.5 53t61 41.5q-14 27 -21 51q-29 -37 -60.5 -76t-72.5 -86 q-145 -168 -199 -168q-51 0 -51 38q0 8 2 17zM211 113q-1 -8 -1 -14q0 -39 50 -40q88 0 100 66q1 7 1 15q0 14 -4 33q-7 30 -23 60q-111 -41 -123 -120z" />
<glyph unicode="t" horiz-adv-x="565" d="M-311 795q6 33 53 65q45 31 270 47q74 4 134.5 6t132.5 7q25 111 54 160.5t58 49.5q66 0 66 -63q0 -11 -2 -25q-4 -16 -10.5 -45.5t-18.5 -70.5q87 3 158 3q103 -1 174 -7q121 -12 155 -17q-10 10 -4 26.5t21 16.5q69 0 69 -55q0 -10 -2 -21q-12 -73 -147 -73h-4h-117 q-68 0 -160 2q-31 0 -83 1t-99 1q-59 -160 -101 -284t-55 -200q-9 -50 -10 -88q0 -112 83 -112h1q16 0 41 11t62 40q55 41 104 96q8 8 25 8q60 -2 60 -59q0 -13 -3 -29q-6 -35 -39 -67.5t-94 -71.5q-117 -70 -180 -70q-66 0 -108 34t-67 98q-12 45 -15 105q-1 14 -1 28 q0 47 8 98q16 90 52 207t86 239q-74 0 -158 -3t-189 -9q-16 -2 -28 -2t-17 -2l15 -20q2 -2 3 -7.5t1 -9.5q-4 -18 -17.5 -30.5t-42.5 -12.5q-116 0 -116 80q0 12 2 25z" />
<glyph unicode="u" horiz-adv-x="802" d="M-2 395q6 59 104 101q70 32 124 32h3q71 0 71 -67q0 -14 -3 -31q-4 -23 -13.5 -50.5t-25.5 -64.5q-16 -35 -25.5 -59.5t-11.5 -38.5q-4 -23 -4 -38q0 -27 13 -27h1q41 0 148 172q122 204 145 204q12 0 25.5 -7t26 -19.5t19.5 -26.5t5 -29q-4 -25 -7 -37t-7 -21 t-7.5 -17.5t-7.5 -22.5q-20 -53 -24 -86q-6 -33 -6 -63q0 -18 2 -35q6 -23 15 -36t24 -13q18 0 51 19.5t63 45.5q41 37 72 58.5t41 21.5q46 0 46 -45q0 -7 -1 -14q-12 -61 -133 -144q-55 -37 -99 -57t-73 -20q-37 0 -62.5 22.5t-44.5 63.5q-8 27 -12 59.5t-4 60.5 q-14 -18 -28.5 -34.5t-30.5 -32.5q-94 -102 -168 -103q-103 0 -103 132q0 33 6 73q4 18 13.5 45t21.5 53l-2 -2q10 27 19.5 50.5t13.5 33.5q-10 -4 -21.5 -10t-23.5 -18q-53 -43 -82 -43q-45 0 -45 44q0 9 2 21z" />
<glyph unicode="v" horiz-adv-x="552" d="M86 442q4 29 28.5 38t47.5 16q4 0 6 2t4 2q4 2 11 8t18 16q31 27 57 27q67 0 67 -61q0 -12 -3 -27q-8 -45 -48 -135q-35 -88 -41 -127q-8 -37 3.5 -55.5t33.5 -18.5q29 0 54.5 15.5t48.5 50.5q18 29 32.5 59.5t18.5 62.5q4 20 5 36t1 34q-6 0 -14 -1t-15 -1 q-14 0 -27.5 10t-23.5 26.5t-16 34t-2 33.5q12 76 80 76q12 0 31.5 -7t43.5 -24q25 10 58 35q70 51 90 51h1q31 0 31 -40q0 -12 -3 -27q-6 -37 -39 -67.5t-82 -53.5q5 -26 5 -52q0 -31 -7 -61q-18 -111 -105 -215q-93 -118 -203 -118h-2q-47 0 -74.5 21.5t-43.5 64.5 q-10 31 -10 71q0 35 8 76q4 18 9 44t15 50q8 25 13.5 48.5t7.5 33.5q-4 -8 -19 -8q-52 5 -52 45q0 6 1 12z" />
<glyph unicode="w" horiz-adv-x="1003" d="M59 463q0 6 17.5 21.5t46.5 35.5l2 4q2 0 4 2q29 18 44 24.5t26 6.5q43 1 58 -25q9 -15 9 -44q0 -18 -4 -42q-4 -23 -10 -52t-21 -70q-10 -37 -17 -66t-9 -45q-8 -38 -8 -57t8 -19q35 0 110 137q84 170 142 170q53 0 69 -182v4q16 -145 45 -145q43 0 95 160v-2 q16 57 32.5 116.5t32.5 118.5q27 61 60 61q14 0 29.5 -12t25.5 -30.5t15 -40t3 -37.5q-4 -18 -11 -38t-15 -38q-10 -20 -17.5 -38.5t-9.5 -23.5q-1 -8 -1 -16q0 -31 18 -55q24 -30 67 -29q4 0 16.5 5t24.5 14h-2q37 20 57 20q18 0 34.5 -27t14.5 -45q-4 -20 -20 -38.5 t-39 -34t-48.5 -24.5t-45.5 -9q-98 0 -152 72q-10 -23 -24.5 -44.5t-28.5 -44.5q-66 -94 -135 -94q-39 0 -67.5 21.5t-45.5 56.5q-20 47 -33 127q-4 31 0 41q-4 -4 -9 -12t-15 -25q-23 -39 -41.5 -66.5t-32.5 -46.5q-60 -65 -129 -65h-2q-98 0 -98 159v19q2 23 10 78t25 141 q0 2 -9 2q-25 3 -35 21q-7 12 -7 30q0 7 1 15z" />
<glyph unicode="x" horiz-adv-x="634" d="M-29 352q4 25 33 56.5t86 68.5q113 76 156 76q45 0 77.5 -22.5t51.5 -59.5q45 53 86 84t71 31q29 0 44.5 -33t11.5 -61q-8 -45 -48 -93.5t-124 -103.5q-6 -10 -9.5 -19.5t-5.5 -17.5q-4 -18 -2 -38.5t4 -37.5q6 -18 13.5 -30.5t19.5 -12.5q43 0 111 62q43 37 68.5 57.5 t37.5 20.5q10 0 20.5 -9.5t17.5 -23t11 -26.5q3 -9 4 -16q0 -3 -1 -5q-8 -49 -123 -127q-115 -74 -158 -74q-90 0 -129 80q-41 -53 -83 -84t-73 -31q-35 0 -48 35q-9 24 -9 45q0 10 2 18q12 82 162 181q18 41 24 65q4 31 -4 62.5t-28 31.5q-18 0 -46 -14t-63 -43 q-88 -72 -109 -72q-10 0 -19 9.5t-17 21.5q-7 11 -11 25q-3 9 -3 17q0 4 1 7z" />
<glyph unicode="y" horiz-adv-x="808" d="M35 180l117 123l2 14q4 35 15 68t28 70q25 53 50 79.5t60 26.5q67 0 67 -51q0 -6 -1 -14q-10 -45 -39 -111t-33 -88q-5 -23 -5 -43q0 -23 7 -41q10 -39 35 -39q33 0 115 100q72 92 96 154q47 121 90 121q68 0 68 -121q0 -53 -13 -129q-4 -23 -11 -55.5t-13 -55.5l-2 -18 q-4 -26 -4 -43q0 -27 12 -27h10q8 0 19 2q12 4 21 5.5t22 1.5q123 0 157 -111l2 2q4 -10 5 -22v-9q0 -7 -1 -14q-6 -37 -49 -37q-41 0 -88 35q-45 27 -69 27q-63 0 -72 -56q-2 -10 -3 -20t-3 -27q-2 -12 -3 -26.5t-3 -22.5q-18 -104 -47 -191.5t-72 -160.5 q-117 -213 -297 -213q-113 0 -156 123q-21 62 -21 131q0 40 7 82q35 180 182 290q35 20 75 43t75 43q39 23 75.5 43.5t73.5 40.5h-2q16 10 45 170q0 4 1 2t1 -4v2v15q-4 -8 -7 -11.5t-9 -13.5q-25 -35 -51.5 -67.5t-47.5 -51.5q-71 -65 -147 -65h-2q-70 0 -98 47 q-6 10 -12.5 30.5t-8.5 45.5q-8 -12 -8 -13q-37 -43 -82 -43q-54 0 -54 61q0 8 1 17zM162 -416q-2 -15 -2 -32q0 -40 14 -89q29 -65 67 -65h1q170 0 254 481l8 39q-35 0 -83 -32.5t-114 -94.5q-133 -133 -145 -207z" />
<glyph unicode="z" horiz-adv-x="514" d="M-164 -428q18 100 66 182q74 115 170 115q120 0 120 -69q0 -8 -2 -17q-10 -57 -75 -57h-15q-8 0 -14 2q-6 0 -8 1t-6 1q-35 0 -64 -47v2q-10 -23 -19 -48.5t-14 -50.5q-3 -19 -2 -36q1 -45 19 -80q26 -48 90 -48q96 0 186 103q76 100 94 213q5 29 5 58q0 58 -19 114 q-35 86 -115 86q-2 0 -14 -2t-20 -4q-20 -4 -31 -4q-35 0 -54.5 26.5t-13.5 59.5q10 68 136 186q39 35 65.5 62.5t40.5 48.5q-16 -10 -34.5 -18.5t-39.5 -8.5q-10 0 -23.5 1t-23.5 3q-12 2 -25.5 4t-17.5 2q-6 0 -33 -67v2q-20 -51 -43.5 -76t-46.5 -25q-62 0 -62 39 q0 4 1 8q2 16 43 82q16 29 24.5 50.5t12.5 35.5q-2 6 -2 15q-2 6 -2 12q0 8 -2 16v-2q-4 25 0 50q6 45 45 45q14 0 37.5 -9.5t50.5 -19.5q23 -6 41 -12.5t34 -6.5q12 0 29 5.5t33 21.5q49 37 78 37q16 0 32.5 -15.5t34.5 -41.5q32 -37 32 -67q0 -5 -1 -9q-8 -47 -139 -172 q-115 -106 -121 -135q2 2 31 0q12 -4 20 -6.5t23 -6.5q113 -39 155 -145q21 -62 22 -132q0 -38 -7 -79q-14 -78 -56.5 -158t-105.5 -151q-74 -78 -152 -120t-161 -42q-106 0 -164 100q-28 64 -28 135q0 31 5 64z" />
<glyph unicode="{" horiz-adv-x="774" d="M174 569l2 11q6 39 109 67q47 12 72.5 26.5t41.5 26.5q14 16 23.5 49t19.5 89q4 29 9.5 71.5t9.5 102.5q8 59 14 106t12 76q16 94 46 163.5t77 114t117 66t166 21.5l25 -11q4 -2 8 -9t2 -13q-6 -31 -56 -49q-59 -18 -96 -32.5t-51 -27.5q-43 -31 -59 -129 q-6 -37 -13.5 -93t-15.5 -134q-4 -72 -11.5 -131.5t-13.5 -98.5q-18 -106 -65 -164.5t-137 -86.5l10 -5q2 0 9 -2t13 -6q20 -10 37 -32.5t25 -57.5q8 -25 5 -70t-13 -108q-8 -41 -21.5 -104.5t-36.5 -149.5l-31.5 -143.5t-21.5 -102.5q-12 -84 25 -139q14 -23 42.5 -42 t67.5 -36l-2 2q20 -4 26.5 -15t4.5 -28q-2 -6 -11.5 -17t-20.5 -22.5t-22.5 -18.5t-17.5 -7q-66 0 -143 65q-33 29 -56.5 60.5t-33.5 66.5q-14 41 -9 124t25 206q6 29 13.5 72t21.5 98q2 12 5 28.5t5 26.5q10 37 14.5 65.5t8.5 51.5q20 119 2 152q-8 18 -43 29t-94 22 l-13 12q-2 2 -5 6t-1 8z" />
<glyph unicode="|" horiz-adv-x="442" d="M68 -573l378 2183q4 25 29 24h123q25 0 20 -24l-378 -2183q-4 -25 -29 -25h-123q-25 0 -20 25z" />
<glyph unicode="}" horiz-adv-x="774" d="M78 -459q2 16 12 27.5t31 15.5l-6 -2q94 35 146 83t67 134q8 41 14 102.5t16 143.5q10 86 17.5 149.5t15.5 104.5q10 61 23.5 107.5t31.5 70.5q35 68 95 90q10 8 22 8l12 5q-82 29 -107.5 86t-6.5 165q6 39 19.5 96.5t31.5 133.5q23 78 36 135t19 92q16 96 -16 129 q-25 25 -125 60q-27 10 -36 21t-3 34q2 4 8 9t11 7l26 11q184 0 254 -93q57 -86 27 -272q-6 -29 -16.5 -76t-26.5 -106q-25 -115 -35 -174q-20 -109 -6 -138q10 -12 31.5 -26.5t62.5 -26.5q96 -29 86 -72l-2 -6q-4 -8 -10 -14l-21 -14q-127 -18 -151 -49q-29 -29 -52 -152 q-4 -31 -11 -73t-15 -99q-4 -16 -4 -29q0 -12 -4 -24q-2 -33 -7.5 -65t-9.5 -52q-20 -117 -45.5 -202t-54.5 -128q-23 -31 -56.5 -64.5t-74.5 -62.5q-47 -31 -88 -48t-78 -17q-6 0 -15.5 7t-16.5 18.5t-12 22.5t-3 17z" />
<glyph unicode="~" horiz-adv-x="1425" d="M272 422q6 25 21 45q139 188 344 188q41 0 94 -15t117 -52q63 -29 111.5 -45.5t84.5 -16.5q37 0 72 17.5t72 50.5q16 16 40.5 25.5t45.5 11.5q-8 2 -10 10t-1 16.5t7 14.5t16 6q25 0 41 -29.5t12 -54.5q-8 -41 -45 -81t-90 -75q-106 -66 -194 -65q-47 0 -103.5 16.5 t-128.5 52.5q-133 63 -192 64q-74 0 -156 -74q-23 -20 -48.5 -29.5t-41.5 -9.5q16 -4 12 -25.5t-22 -21.5q-25 0 -43.5 26.5t-14.5 49.5z" />
<glyph unicode="&#xa1;" horiz-adv-x="552" d="M113 -496q12 68 38.5 167.5t67.5 230.5t67.5 230t39.5 165q20 129 6 156q-4 4 -14.5 9t-28.5 9q-33 16 -25 78q8 43 46 83t85 40q76 0 111 -86h-2q16 -35 -2 -146q-12 -70 -35 -168t-57 -231q-33 -133 -55.5 -231.5t-35.5 -163.5q-2 -14 -4 -38t-4 -59l2 5 q-2 -33 -3 -59.5t-5 -45.5q-18 -96 -94 -96q-123 0 -98 151zM330 827.5q-4 24.5 0 42.5q18 104 92 105q101 0 76 -131q-18 -111 -101 -111q-18 0 -31.5 14.5t-22.5 35t-13 45z" />
<glyph unicode="&#xa2;" horiz-adv-x="757" d="M123 403q14 84 82 164q39 47 71.5 67.5t73.5 24.5q14 59 28.5 122t24.5 124q10 51 68 51q47 0 35 -61q0 -6 -12.5 -64.5t-40.5 -187.5q133 -41 110 -166q-12 -61 -76 -61q-20 0 -42.5 8t-34.5 22q-10 -43 -17.5 -86t-17.5 -90q86 4 158.5 32t148.5 81q8 0 23.5 2t29 -2 t21.5 -17t2 -44q-2 -16 -25 -35q-80 -70 -174 -106t-211 -34l-16 -94q-35 -199 -90 -198q-57 0 -37 131q4 20 8 45.5t12 56.5q10 29 14.5 46.5t6.5 29.5q-66 29 -101.5 95.5t-21.5 143.5zM250 333.5q4 -22.5 24 -38.5l50 229q-27 -27 -46.5 -62.5t-25.5 -70.5t-2 -57.5z" />
<glyph unicode="&#xa3;" horiz-adv-x="1341" d="M86 -94q0 12 98 104q53 45 94 89t76 96q96 137 121 286q4 18 7 46t3 63q2 29 1 49t3 39q-6 0 -15 -1t-21 -1h-62q-102 0 -94 47q4 16 28.5 33.5t77.5 42.5h95q2 10 3 29.5t5 33.5q2 10 2 17v16q2 14 5 32.5t5 28.5q16 92 43 173t70 147q117 184 293 184q211 0 174 -217 q-37 -203 -123 -203q-37 14 -35 111q4 49 2 81t-6 48q-12 57 -68 57q-111 0 -161 -295q-10 -61 -17.5 -120.5t-9.5 -122.5h205q16 0 20 -17q0 -20 -2 -28q-6 -39 -64.5 -57.5t-160.5 -18.5q-4 -55 -8 -104.5t-13 -96.5q-37 -201 -147 -354q29 8 55.5 11t61.5 3q72 0 192 -63 q55 -27 99.5 -42.5t74.5 -15.5q35 0 63.5 36t35.5 73q6 31 -19 51q-37 35 -35 57q10 59 84 60q74 0 99 -76q22 -53 10 -127q-8 -47 -34 -92t-63.5 -79t-83.5 -54.5t-96 -20.5q-80 0 -233 74q-74 35 -129 52.5t-96 17.5q-86 0 -213 -70v4q-47 -33 -123 -33q8 -2 10 -9t0 -15 t-8 -15.5t-15 -7.5q-76 0 -61 64z" />
<glyph unicode="&#xa4;" horiz-adv-x="2772" d="M4 991q6 33 33 80q59 82 159.5 152.5t237.5 124.5q119 47 234.5 71.5t220.5 24.5q115 0 205 -45q53 12 100 20q106 18 188 19q420 0 523 -318q82 123 315 123q41 0 84 -10t80 -26.5t58.5 -37t15.5 -43.5q-18 -61 -121 -61q-25 0 -43.5 7t-36.5 18l-29 14q-127 0 -149 -82 q-18 -45 14 -170q27 -117 39 -123q0 2 20 21q311 238 388 481q8 16 8 43q0 31 -4 69q-10 80 8 125q20 74 104 74q98 0 109 -151q-2 -51 -6 -93.5t-15 -78.5q-55 -176 -323 -443q-61 -66 -108.5 -107.5t-88.5 -64.5q8 -4 4 -10q4 4 21.5 -19.5t48.5 -70.5q31 -53 58.5 -105.5 t49.5 -105.5q29 -72 32 -132.5t-13 -111.5q-18 -51 -57 -102t-87 -92q-68 -53 -153 -82q-63 -23 -131 -29q-18 -10 -47 -10q-27 0 -74 12q-98 12 -176 55q-96 33 -187 68q-162 66 -305 139q-45 27 -102 56.5t-154 80.5q-29 -78 -39 -137q-2 -8 -10 -10q12 0 21 2q6 0 9 1 t5 1q57 0 49 -49q-6 -33 -61 -100h2q-55 -74 -101 -74q-23 0 -38 23.5t-21 58.5q-2 23 -2 47q0 23 4 47q4 29 14.5 63.5t24.5 75.5q18 49 28.5 76t14.5 43q-35 31 -58.5 59.5t-19.5 51.5q2 16 32 28.5t83 12.5q6 29 14 57q-109 -68 -215 -107q-137 -49 -266 -49h-16 q-8 0 -17 2h-27q-18 0 -24 -53q-20 -111 -28.5 -174.5t-6.5 -75.5q6 -6 11 -13t12 -13q23 -27 16 -56q-2 -29 -43 -82h2q-43 -59 -82 -59q-88 0 -51 203q6 53 35 166q31 109 37 161q4 16 -76 60q-98 55 -84 141q10 51 63 51q20 0 80 -59v2q33 -35 51 -45q0 2 2 6 q27 158 99 408q106 346 184 346q27 0 53 -21q16 55 97 103q39 25 92 47q-51 -6 -115 -23q-102 -27 -225 -69q-141 -51 -219 -102.5t-88 -100.5q0 -8 4 -20.5t16 -30.5q12 -25 19.5 -45.5t3.5 -38.5q-8 -47 -68 -47q-59 0 -97 48t-28 109zM395 408h2q104 0 210 31.5t204 90.5 q80 49 143 101q27 101 56 203q76 283 139 368q-23 31 -53 51q-82 -20 -181 -51q-23 -4 -35 -8t-22 -6q-20 -8 -29 -8q-10 -4 -21 -8.5t-15 -8.5q0 -6 10 -6q23 -8 35 -20.5t8 -28.5q-6 -41 -76 -59q-23 -4 -41 -8.5t-35 -4.5q-43 0 -67 29q-8 -16 -21 -37q-16 -27 -26.5 -39 t-10.5 -10q-12 -25 -36.5 -95.5t-57.5 -185.5q-68 -219 -80 -290zM1016 371q8 0 20 6h-2q113 33 229.5 92t227.5 133q129 94 203.5 189.5t91.5 187.5q14 84 -15.5 147.5t-95.5 104.5q-57 33 -133 50t-174 17q-53 0 -131 -14q121 -147 86 -356q-23 -125 -115 -242 q-61 -80 -149 -154q-8 -31 -17 -55q-23 -72 -26 -106zM1044 244q35 -33 122 -76t223 -98q76 -35 139 -60q-14 52 2 101q18 53 74.5 121.5t158.5 162.5q94 88 143.5 135.5t53.5 61.5q10 33 -51 192l-21 50q-70 -164 -282 -328q-121 -92 -240 -152.5t-236 -95.5q-2 0 -6 -2h-4 q-10 -4 -25.5 -5t-31.5 -3q-4 -4 -19 -4zM1159 846l2 2v2q-2 -2 -2 -4zM1161 850q33 55 43 108l-4 -8h2q-16 -31 -41 -100zM1755 100q-14 -49 12 -104q8 4 15 4q66 0 162 -61v2q51 -35 73 -74q59 14 123 67q27 29 50.5 61.5t33.5 65.5q23 70 -14 168.5t-131 219.5 q-10 10 -6 12q-33 -8 -158 -156q-72 -84 -112 -133t-48 -72z" />
<glyph unicode="&#xa5;" horiz-adv-x="1081" d="M-8 379q10 59 256 115q215 51 219 79q12 68 3 152t-38 186q-39 131 -123 322q-74 160 -67 184q4 31 24.5 45.5t48.5 14.5q39 0 62 -37h-2q45 -63 84 -161.5t76 -234.5q23 -86 41 -175t26 -169q59 113 138 222.5t165 193.5q248 229 533 262h14q84 0 70 -86 q-4 -18 -39 -37.5t-94 -42.5q-10 -6 -28 -10t-28 -10l-86 -29h6q-170 -82 -303 -219t-227 -328q16 6 33.5 10.5t34.5 10.5l40.5 9t38.5 9q59 16 108.5 24.5t90.5 8.5q84 0 70 -84q-6 -33 -58.5 -55.5t-156.5 -44.5q-16 -4 -29 -8q-51 -10 -99 -18.5t-98 -12.5 q-16 -8 -30.5 -16.5t-24.5 -22.5v2q-4 -10 -8 -27.5t-8 -44.5l-4 -14q2 2 4 2q6 0 12 2q139 45 246.5 66.5t183.5 21.5q86 0 72 -82q-6 -45 -58 -57q-74 -12 -186.5 -38t-259.5 -60h2q-23 -6 -29 -13.5t-10 -33.5q-4 -23 -9 -59t-13 -83q-6 -49 -12.5 -87t-10.5 -60 q-59 -326 -143 -326q-86 0 -70 88q2 2 2 6q0 8 2 15q6 16 13.5 44.5t17.5 73.5q16 61 33.5 141.5t33.5 168.5l11 67q-14 0 -55.5 -12t-106.5 -41q-145 -59 -195 -59q-84 0 -69 84q10 55 235 118q94 25 147.5 47.5t55.5 38.5q16 88 -14 88q-29 0 -78 -13t-121 -38 q-78 -31 -126 -44t-69 -13q-35 0 -54 24.5t-13 59.5z" />
<glyph unicode="&#xa6;" horiz-adv-x="745" d="M201 -520l145 844q2 25 29 24h123q23 0 20 -24l-147 -844q-4 -25 -29 -25h-121q-25 0 -20 25zM420 748l147 845q4 25 29 25h123q25 0 20 -25l-151 -845q-4 -23 -29 -23h-119q-25 0 -20 23z" />
<glyph unicode="&#xa7;" horiz-adv-x="1110" d="M274 -45q6 47 62 47q27 0 48.5 -16.5t33.5 -44.5q12 -20 28.5 -33.5t32.5 -13.5q57 0 107 59q51 51 61 113q18 106 -61 215v-2q-23 20 -43.5 44.5t-38.5 47.5q-23 20 -43.5 44.5t-36.5 47.5q-92 117 -68 246q8 53 40 96t85 78q33 18 68 28.5t69 14.5q-80 82 -109.5 161.5 t-14.5 157.5q18 113 124 172q90 53 199 53q31 0 64.5 -9t64.5 -27q84 -47 72 -117q-6 -51 -62 -51q-31 0 -52 12t-30 41q-14 8 -34 8q-72 0 -127 -33q-63 -31 -72 -88q-12 -78 68 -174q41 -47 81.5 -96t81.5 -96q87 -136 62 -273q-16 -82 -71.5 -151.5t-133.5 -104.5 q49 -72 65.5 -140.5t4.5 -141.5q-10 -55 -39 -102.5t-72 -88.5q-94 -84 -199 -84q-162 0 -210 164q-8 14 -5 37zM506 666q-8 -47 21.5 -106.5t95.5 -125.5q49 6 102 55q45 58 57 117q6 41 1 81t-27 85q-18 4 -32.5 9t-23.5 5q-68 0 -125 -28q-33 -16 -49 -40t-20 -52z" />
<glyph unicode="&#xa8;" horiz-adv-x="587" d="M223 825q2 14 12.5 30.5t24.5 30t29.5 23t32.5 9.5q99 -1 81 -97q-8 -45 -33.5 -66.5t-78.5 -21.5q-31 0 -52.5 29t-15.5 63zM469 825q2 14 12.5 30.5t23.5 30t29.5 23t32.5 9.5q100 -1 82 -97q-14 -88 -108 -88q-35 0 -56.5 29t-15.5 63z" />
<glyph unicode="&#xa9;" horiz-adv-x="1767" d="M391 692q53 293 291 504q121 106 252 160.5t278 54.5t260 -54t195 -161q166 -211 113 -504q-49 -293 -291 -504q-242 -213 -533 -213t-450 213q-164 217 -115 504zM557 692q-20 -115 1.5 -214t78.5 -179q59 -78 149.5 -122t198.5 -44q229 0 414 166q86 82 140.5 180 t74.5 213q41 236 -82 393q-121 164 -350 164q-227 0 -408 -166q-86 -78 -141 -176t-76 -215zM711 692q16 92 57 170t101.5 133.5t138 87t168.5 31.5q123 0 198.5 -63.5t89.5 -176.5q0 -20 -20 -28l-113 -43q-10 -4 -19 0t-12 16q0 61 -41.5 101.5t-109.5 40.5 q-102 0 -174 -78q-66 -72 -84 -185q-10 -53 -4 -103t28 -87q23 -39 60 -60.5t90 -21.5q68 0 121 39t71 108q6 12 16.5 18.5t20.5 0.5l101 -49q16 -8 8 -29q-25 -53 -64 -98t-88 -77t-105 -49.5t-114 -17.5q-178 0 -266 121q-86 117 -55 299z" />
<glyph unicode="&#xaa;" horiz-adv-x="833" d="M272 1139q2 12 22.5 31.5t55.5 48.5q27 18 49.5 35.5t32.5 27.5q135 141 215 141q41 0 74 -24.5t29 -67.5q4 0 7 2t7 2q63 0 55 -53q-2 -16 -43 -78q-14 -25 -23.5 -45t-13.5 -37q-6 -25 9 -24q35 0 106 67q49 41 74.5 62.5t36.5 21.5q51 0 43 -55q-12 -59 -115 -137 q-100 -76 -158 -76q-121 0 -100 117q-10 -10 -17.5 -16.5t-15.5 -12.5q-43 -43 -84 -66.5t-76 -23.5q-51 0 -77.5 30.5t-26.5 84.5q-12 -8 -25 -9q-51 0 -41 54zM455 1110q-4 -18 2 -18q18 0 53 28.5t92 83.5q25 27 46.5 46.5t39.5 35.5q-2 2 -10 6q-8 6 -18.5 12.5 t-14.5 6.5q-37 0 -110 -78q-35 -41 -55.5 -70.5t-24.5 -52.5z" />
<glyph unicode="&#xab;" horiz-adv-x="843" d="M193 469q8 43 35.5 67.5t60.5 45.5l5 5t5 3l371 291q10 6 21 5t16 -12q8 -20 2 -53q-8 -55 -74 -121l-238 -223q4 -10 14.5 -26.5t14.5 -30.5q12 -37 33 -78q41 -102 30 -160q-4 -25 -13 -44t-27 -38q-10 -10 -23 -10q-10 0 -16 10q-223 338 -217 369zM506 469 q8 43 33.5 67.5t60.5 45.5q6 6 10 8l369 291q10 6 23.5 5t17.5 -12q4 -10 5 -24.5t-3 -26.5q-4 -29 -25.5 -61.5t-52.5 -61.5q-57 -55 -114.5 -109t-118.5 -112q16 -35 30.5 -66.5t28.5 -66.5q20 -51 28.5 -94t4.5 -70q-6 -41 -41 -82q-10 -10 -23 -10q-10 0 -14 10 q-225 334 -219 369z" />
<glyph unicode="&#xac;" horiz-adv-x="1368" d="M223 420q2 10 15.5 28.5t33.5 40.5q29 27 48.5 39.5t29.5 12.5t27.5 -1t38.5 -3q43 -6 67 -7h475h48q29 0 67 2q10 0 19.5 2.5t19.5 2.5q20 2 43 2h35q63 0 57 -64q-4 -14 -8 -38.5t-10 -47.5l-12 -80q-2 -10 -5.5 -29.5t-5.5 -41.5q-4 -20 -5 -40t-5 -34q-4 -27 -51 -68 q-51 -43 -76 -45q-6 -2 -12 3t-10 9q-8 20 30 246l8 47q2 29 -38 29h-781q-23 0 -35 7t-8 28z" />
<glyph unicode="&#xad;" horiz-adv-x="966" d="M164 328q49 86 112 86h584q31 0 41 -23l-4 -18q-47 -80 -119 -80h-571q-18 0 -28.5 6t-14.5 29z" />
<glyph unicode="&#xae;" horiz-adv-x="1841" d="M428 711q25 143 95.5 270t193.5 236q238 213 530 213q297 0 455 -213q164 -217 115 -506q-53 -295 -293 -510t-533 -215t-452 215q-164 215 -111 510zM592 495.5q20 -98.5 80 -186.5q59 -84 147 -125t203 -41q227 0 412 168q174 167 215 400q39 227 -82 395 q-115 164 -350 164q-227 0 -408 -166q-178 -168 -217 -393q-20 -117 0 -215.5zM776 322l135 770q4 25 29 24h307q299 0 256 -233q-35 -207 -237 -234q33 -76 68.5 -157.5t70.5 -157.5q4 -12 -5 -23.5t-24 -11.5h-133q-6 0 -13 3t-7 7l-133 338h-103l-55 -325q-4 -23 -25 -23 h-110q-25 0 -21 23zM1016 786h160q143 1 161 101q16 98 -127 98h-159z" />
<glyph unicode="&#xb0;" horiz-adv-x="1011" d="M518 1206.5q-8 59.5 2 124.5q25 135 129 246q53 53 116.5 82t129.5 29q137 0 211 -113q66 -103 41 -244q-10 -66 -41 -127t-84 -112q-55 -57 -118.5 -84t-131.5 -27q-137 0 -211 113q-35 53 -43 112.5zM655 1331q-6 -39 1.5 -74.5t25.5 -63.5t48 -45.5t69 -17.5 t74.5 17.5t64.5 45.5t48.5 63.5t25.5 74.5t0 77t-24.5 66.5t-48.5 46t-69 17.5t-73.5 -16.5t-64.5 -45t-49 -66.5t-28 -79z" />
<glyph unicode="&#xb1;" horiz-adv-x="948" d="M244 45q2 10 14 24.5t27.5 29t32 23.5t26.5 9h84q51 0 117 -4h200q60 0 52 -45q-2 -16 -13.5 -30.5t-26 -26t-30.5 -18.5t-29 -7h-403q-57 0 -51 45zM297 352q2 10 14.5 24.5t27.5 29t31.5 23.5t26.5 9h37q12 -4 19 -4h12h55q6 6 15.5 16.5t15.5 20.5q-6 0 -15.5 4 t-7.5 17q20 125 115 131q14 0 19 -13q12 -25 -13 -172q-2 -4 0 -4h19q14 0 39 4q25 2 48 1t40 -5q63 -4 55 -45q-12 -86 -160 -86h-24t-29 2h-10q-4 -29 -7.5 -45t-3.5 -18q-8 -45 -35.5 -71t-76.5 -28q-12 0 -19 13q-10 25 11 149h-21q-10 0 -33 -2q-29 -4 -50 -2t-38 4 q-63 4 -57 47z" />
<glyph unicode="&#xb2;" horiz-adv-x="796" d="M217 643q6 37 36 85t79 106q23 27 45 51t45 51t46.5 51.5t45.5 52.5l-4 -4q96 129 115 228q4 31 4 55q0 27 -4 47q-14 51 -56 51q-43 0 -84 -49q-47 -53 -53 -94l-2 -4h-2l2 -2q35 -2 27 -49q-6 -31 -51 -93q-51 -72 -80 -71q-41 0 -51.5 37.5t4.5 115.5 q10 55 33.5 107.5t66.5 105.5q96 125 207 125q102 0 145 -106q31 -76 8 -191q-25 -150 -161 -303q-55 -57 -95.5 -103t-60.5 -79q20 -2 48 -11.5t65 -31.5q29 -16 51 -28.5t32 -12.5q20 0 66 29q25 16 41 26t27 10q29 0 54 -26t21 -57q-8 -47 -73 -76q-55 -29 -95 -29 q-35 0 -74.5 10.5t-92.5 32.5q-96 37 -138 37q-4 0 -18 -31v4q-27 -61 -68 -61q-70 0 -51 94z" />
<glyph unicode="&#xb3;" horiz-adv-x="782" d="M193 600q12 51 47 51q12 0 28.5 -13t38.5 -46h-4q35 -43 94 -43q109 0 197 94q82 90 102 207q31 182 -73 182q-10 -2 -19 -4q-8 -2 -18.5 -4t-18.5 -4q-18 -4 -35.5 -7t-29.5 -3q-72 0 -62 63q8 41 74 70q16 6 34.5 12t35.5 12q29 10 52 33t48 55q25 37 41 69t20 60 q16 88 -45 89q-47 0 -82.5 -38t-42.5 -85q27 -10 21 -50q-4 -14 -14.5 -32.5t-32.5 -40.5v2q-18 -29 -36.5 -40t-35.5 -11q-61 0 -37 137q10 49 34 98t58 90q88 94 191 94q180 0 137 -229q-10 -59 -44 -119.5t-89 -118.5q125 -71 82 -311q-14 -86 -55 -157.5t-101.5 -124 t-136.5 -81t-160 -28.5q-195 0 -163 172z" />
<glyph unicode="&#xb4;" horiz-adv-x="581" d="M222 769q1 5 5 9q4 8 23.5 42t58.5 91q16 23 29.5 42.5t23.5 33.5q16 27 27.5 43.5t16.5 22.5q45 49 116 49q70 0 60 -53q-6 -35 -152 -175h2q-143 -137 -178 -141q-8 -4 -13 2t-10 13l-6 14q-4 2 -3 7z" />
<glyph unicode="&#xb5;" horiz-adv-x="784" d="M-4 389q8 61 113 105q76 35 133 34q80 0 65 -84q-6 -43 -61 -133q-20 -35 -34.5 -66.5t-18.5 -49.5q-6 -43 4 -43q25 0 66.5 44t107.5 132q145 201 170 200q23 0 48 -25.5t21 -51.5q-4 -23 -16 -52.5t-35 -74.5q-16 -33 -26.5 -60.5t-14.5 -50.5q-18 -98 25 -98 q45 0 125 65q100 80 125 80q20 0 32.5 -29t8.5 -49q-4 -25 -35 -56.5t-92 -72.5q-59 -35 -99.5 -54t-62.5 -19q-41 0 -70 21.5t-51 49.5q-14 27 -22.5 56.5t-4.5 64.5q-109 -133 -190 -152l-8 -53q-8 -25 -10.5 -54.5t-2.5 -55.5q-2 -16 2 -19q0 -8 1 -17t1 -20 q-2 -4 -4 -11t-6 -9l-12 -10q-6 -6 -16 -7q-20 0 -36 13.5t-26 33t-15 42t-1 41.5q2 10 10 16t16 6q10 0 17.5 -4t7.5 -12q6 41 12 80.5t7 66.5t-2 31t-13 -29l12 -24q-88 29 -61 176q6 47 49 127q14 25 23.5 41t13.5 26l-22.5 -9t-26.5 -17q-55 -39 -84 -39q-45 0 -37 59z " />
<glyph unicode="&#xb6;" horiz-adv-x="1243" d="M309 913q16 88 54 164t94 137q66 66 141.5 102t159.5 36h524q14 0 19.5 -8.5t1.5 -18.5l-27 -72q-8 -16 -29 -16l-35 2q-29 0 -30 -2l-195 -1153q-51 -297 -37 -330q2 -10 12.5 -15t22.5 -7q12 0 12 -17q10 10 25.5 16.5t36.5 6.5q10 0 16 -10.5t0 -22.5l-28 -65 q-8 -20 -29 -21h-223q-23 0 -19 25l273 1593h-27q-70 -401 -136.5 -797.5t-135.5 -795.5q-4 -25 -29 -25h-176q-23 0 -19 25l13 69q4 25 26 25l39 -4q27 -4 27 4l135 774q-49 -29 -91 -39t-87 -10q-168 0 -242 149q-66 133 -37 301zM461 905q-18 -121 14 -213 q43 -106 143 -106q35 0 77 14t96 51l98 586h-125q-61 0 -111.5 -26.5t-91.5 -77.5q-76 -90 -100 -228z" />
<glyph unicode="&#xb8;" horiz-adv-x="751" d="M147 -467q2 20 64 72q43 35 45 61q6 37 -29 88q-49 61 -43 96q4 20 29 67.5t70 117.5q8 12 20 12h49q16 0 21.5 -11t-2.5 -24q-23 -29 -34 -49t-15 -39q-2 -12 34 -71q27 -37 34 -71t1 -67q-4 -27 -25.5 -60.5t-56.5 -72.5q-33 -41 -66.5 -63.5t-56.5 -22.5q-45 0 -39 37 z" />
<glyph unicode="&#xb9;" horiz-adv-x="714" d="M283 653q6 41 75 80q20 14 36 30.5t22 27.5q14 45 27.5 88t29.5 95t36.5 118.5t51.5 156.5q-84 -68 -174 -67q-16 0 -32.5 9t-29 22.5t-19.5 30t-3 30.5q6 39 55 45l-4 -49q188 18 270.5 27.5t79 13.5t-81 5t-210.5 1q45 2 110 55q23 18 51.5 47t59.5 66q29 33 50.5 52 t27.5 19q31 0 50 -35.5t15 -66.5q-4 -18 -53 -119q-147 -297 -182 -491q-2 -10 -3 -16.5t1 -12.5q10 0 16 4q12 4 24.5 8t30.5 4q82 1 70 -67q-10 -68 -135 -98q-113 -25 -131 -43q-47 -59 -74 -60q-12 0 -23.5 10.5t-19.5 24.5t-12 29.5t-2 25.5z" />
<glyph unicode="&#xba;" horiz-adv-x="833" d="M332 1147q2 16 51 59q27 29 39 51q92 203 201 203q29 0 44 -12t11 -31h10q12 0 30.5 -5t37.5 -19q25 6 80 55q4 4 11 7t11 3q23 -4 30 -16t3 -41t-27.5 -51.5t-58.5 -36.5q8 -29 -2 -84q-8 -43 -29.5 -82t-52.5 -76q-39 -45 -79 -65.5t-81 -20.5q-106 0 -133 86 q-4 8 -6 18.5t-6 20.5l-2 -2q-4 10 -3 6t-1 6q-27 -18 -39 -18q-47 0 -39 45zM520 1204q-18 -111 51 -110q39 0 78 53q23 31 38 56.5t20 47.5q2 10 2 15v12q-10 -8 -19 -8h-20q-61 0 -47 78q2 14 6 24t8 21q-10 10 -8 12q-4 -20 -13.5 -43t-21.5 -33q-63 -61 -74 -125z" />
<glyph unicode="&#xbb;" horiz-adv-x="843" d="M151 126.5q-1 12.5 3 29.5q8 59 73 118v-2l105.5 105.5t107.5 105.5q-25 55 -51.5 111.5t-48.5 110.5q-10 18 -10 40q0 25 4 50q6 39 39 82q10 12 20 11t19 -11l192 -287q0 -8 8 -8q16 -18 27.5 -38.5t5.5 -51.5q-6 -41 -32.5 -66t-57.5 -43q-4 -4 -9 -5t-7 -5l-342 -275 q-10 -10 -23.5 -8t-17.5 12q-4 12 -5 24.5zM467 156q4 29 20.5 59.5t49.5 58.5v-2q55 55 106 105.5t107 105.5q-23 53 -46.5 112.5t-46.5 109.5q-10 23 -14 45t0 45q6 43 45 82q6 10 19 10q12 0 18 -10l190 -287l7 -8q14 -16 27 -37.5t7 -52.5q-6 -41 -35.5 -66t-60.5 -47 l-8 -6l-346 -275q-10 -10 -22.5 -8t-14.5 12q-8 23 -2 54z" />
<glyph unicode="&#xbc;" horiz-adv-x="1624" d="M295 653q4 18 24.5 40t51.5 40q20 14 37.5 30.5t21.5 27.5q12 45 25.5 88t30 95t37 118.5t50.5 156.5q-84 -68 -174 -67q-16 0 -32.5 9t-28.5 22.5t-19.5 30t-3.5 30.5q6 39 56 45l-4 -49q188 18 270 27.5t79 13.5t-81 5t-209 1q43 2 109 55q23 18 51 47t59 66 q29 33 50.5 52t29.5 19q14 0 26.5 -10t21.5 -25.5t13.5 -34t1.5 -32.5q-4 -18 -53 -119q-147 -297 -182 -491q-2 -10 -3 -16.5t1 -12.5q10 0 16 4q12 4 25.5 8t30.5 4q81 1 69 -67q-10 -68 -135 -98q-113 -25 -131 -43q-47 -59 -74 -60q-12 0 -23.5 10.5t-19.5 24.5 t-12 29.5t-2 25.5zM303 -279q6 35 108.5 242t307.5 590q72 133 132 247.5t112 209.5q111 205 176 328.5t75 146.5h-2q23 47 43.5 69.5t49.5 22.5q61 0 49 -74q-4 -23 -27.5 -74t-69.5 -131v2q-23 -41 -46 -80.5t-46 -78.5q-16 -29 -28 -49q-205 -369 -369 -691.5 t-274 -570.5q-88 -199 -134 -199q-25 0 -43 33t-14 57zM883 299q2 14 10 26.5t31 18.5q117 123 202.5 226.5t143.5 189.5v-2q18 41 47 86t63 94q8 16 23 16q84 0 70 -104q-6 -31 -18.5 -80t-29.5 -111q-16 -63 -27.5 -109t-17.5 -79q-4 -33 -7 -57.5t1 -40.5q35 0 53 12 q12 12 29 8q51 -13 39 -76q-4 -29 -29.5 -42t-79.5 -13q-27 0 -36 -6t-13 -33q-12 -74 -17 -114.5t-5 -57.5q16 -10 25.5 -29.5t5.5 -41.5q-14 -82 -78 -82q-104 0 -68 208q2 16 7 45t12 50q0 8 3 14t3 8q2 10 0 21q-66 0 -120 -4t-97 -11q-25 -33 -50 -32q-29 0 -55 32.5 t-20 69.5zM1106 358h22t29 2h-2q31 4 55 5h45q-4 0 -4 4q2 12 5.5 26.5t7.5 30.5q4 33 12 71t18 85q-84 -131 -188 -224z" />
<glyph unicode="&#xbd;" horiz-adv-x="1718" d="M297 653q4 18 24.5 40t51.5 40q20 14 37.5 30.5t21.5 27.5q12 45 25.5 88t30 95t37 118.5t50.5 156.5q-84 -68 -174 -67q-16 0 -31.5 9t-28.5 22.5t-20.5 30t-3.5 30.5q6 39 56 45l-4 -49q188 18 271 27.5t80 13.5t-81 5t-211 1q43 2 109 55q23 18 51 47t59 66 q29 33 51.5 52t28.5 19q31 0 49.5 -35.5t14.5 -66.5q-4 -18 -54 -119q-147 -297 -182 -491q-2 -10 -3 -16.5t3 -12.5q8 0 14 4q12 4 25.5 8t30.5 4q81 1 69 -67q-10 -68 -135 -98q-113 -25 -131 -43q-45 -59 -74 -60q-12 0 -23.5 10.5t-19.5 24.5t-12 29.5t-2 25.5z M305 -279q6 35 108.5 242t307.5 590q72 133 133 247.5t111 209.5q111 205 176 328.5t76 146.5h-3q23 47 43.5 69.5t49.5 22.5q61 0 49 -74q-4 -23 -26.5 -74t-69.5 -131v2q-23 -41 -46.5 -80.5t-46.5 -78.5q-16 -29 -28 -49q-205 -369 -369 -691.5t-274 -570.5 q-88 -199 -134 -199q-25 0 -43 33t-14 57zM1016 33q6 35 36.5 82t77.5 106q47 53 92.5 104.5t92.5 104.5l-2 -2q47 63 74.5 118.5t37.5 104.5q4 31 3 57.5t-5 49.5q-10 51 -53 51q-37 0 -82 -51q-49 -49 -55 -96q-4 -2 -4 -3l2 -4q20 -2 25.5 -11t0.5 -38q-4 -27 -53 -92 q-53 -72 -82 -72q-72 0 -45 156q18 106 103 213q94 123 206 123q106 0 146 -107q27 -80 8 -186q-29 -160 -164 -305q-59 -59 -95 -104.5t-56 -79.5q18 -2 43.5 -10.5t66.5 -30.5q27 -16 49.5 -27.5t32.5 -11.5q12 0 27.5 5t38.5 21q29 18 43 27.5t24 9.5q31 0 56.5 -25.5 t21.5 -58.5q-8 -43 -74 -76q-29 -16 -51 -21t-43 -5q-35 0 -77 9t-91 32q-92 37 -137 37q-4 0 -20 -27l4 2q-14 -35 -33 -49t-39 -14q-66 0 -51 94z" />
<glyph unicode="&#xbe;" horiz-adv-x="1671" d="M205 600q12 51 47 51q14 0 29.5 -13t37.5 -46q31 -43 91 -43q109 0 196 94q82 94 103 207q31 182 -74 182q-10 -2 -19 -4q-8 -2 -18 -4t-18 -4q-18 -4 -35 -7t-31 -3q-70 0 -59 63q8 41 71 70l36 12t34 12q29 10 52.5 33t47.5 55q25 37 41.5 69t20.5 60q16 88 -45 89 q-47 0 -82 -38t-41 -85q25 -10 18 -50q-6 -33 -43 -73v2q-23 -29 -41 -40t-35 -11q-61 0 -36 137q10 49 33.5 98t58.5 90q88 94 190 94q180 0 137 -229q-10 -59 -43.5 -119.5t-89.5 -118.5q125 -71 82 -311q-14 -86 -54 -157.5t-100.5 -124t-136 -81t-161.5 -28.5 q-195 0 -164 172zM422 -279q8 47 111.5 253t304.5 581q227 420 348 648.5t143 281.5q27 47 48.5 69.5t47.5 22.5q64 0 52 -74q-4 -23 -29 -75t-70 -130q-10 -14 -15 -25t-15 -24q-18 -35 -45 -78t-46 -79q-211 -375 -370.5 -688.5t-274.5 -573.5q-82 -199 -133 -199 q-29 0 -45 33t-12 57zM1006 299q2 14 10 26.5t28 18.5q236 244 345 416v-2q43 84 112 184q8 12 25 12q82 0 67 -104q-6 -31 -18 -80t-29 -111q-16 -63 -27.5 -109t-17.5 -79q-4 -29 -7 -55.5t-3 -42.5h31q4 4 12 5t8 5q4 4 14.5 8t18.5 2q53 -13 41 -76q-10 -55 -109 -55 q-37 0 -41 -8t-10 -49q-20 -115 -20 -154q43 -20 32 -71q-14 -82 -84 -82q-98 0 -61 208q2 16 7 45t9 50q0 8 2 14t2 8l3 21q-66 0 -121.5 -4t-96.5 -11q-25 -33 -49 -32q-35 0 -57.5 32.5t-15.5 69.5zM1225 358h20q12 0 29 2q33 4 59 5h43q-4 0 -3 1t-3 3q4 20 11.5 54.5 t11.5 59.5t10 51.5t12 55.5q-45 -68 -92 -126t-98 -106z" />
<glyph unicode="&#xbf;" horiz-adv-x="1095" d="M100 -262q27 156 172 297q10 8 75 59t181 144q55 47 93 93t43 75q0 4 -15 22q-14 10 -22.5 25.5t-5.5 29.5q6 31 102 74q31 16 61.5 28.5t42.5 16.5v2q4 6 13.5 8t13.5 -2q59 -33 47 -92q-25 -145 -188 -293l-293 -235q-72 -66 -117 -131.5t-57 -130.5q-18 -106 34 -170 t158 -64q115 0 221 90q104 86 127 205q4 29 -8 35q-59 4 -53 45q10 45 102 143q104 106 142 107q55 0 61 -99v3q4 -29 3 -57.5t-5 -59.5q-37 -195 -227 -377q-197 -178 -391 -178q-86 0 -150.5 28.5t-104.5 80t-54.5 122t-0.5 156.5zM688 760q12 76 103 76q20 0 39.5 -11.5 t33 -30t19.5 -39t4 -38.5q-16 -86 -86 -86q-27 0 -49.5 10t-38 26.5t-22.5 40t-3 52.5z" />
<glyph unicode="&#xc0;" horiz-adv-x="1540" d="M89 163q7 124 30 259q68 379 211 379q84 0 65 -99q-31 -170 -80 -170q-12 0 -19 7.5t-15 17.5q-6 6 -2 10q-16 -6 -39 -127q-16 -98 -22.5 -204.5t-2.5 -210.5q8 -145 38 -220t85 -75q51 0 97 36.5t93 108.5q33 55 117 236q10 18 24.5 47.5t24.5 50.5q16 27 31 61h-2 q27 53 41 84t16 41q2 8 -10 8q-10 0 -33.5 -3t-46.5 -7q-27 -4 -50.5 -6t-37.5 -2q4 0 -4 -20q-23 -66 -57 -66q-37 0 -62 55q-12 23 -15 44.5t1 39.5q12 72 176 90h176q16 0 39 29l55 123q29 61 70 151.5t94 210.5q186 408 264 408q145 0 115 -174q-4 -16 -9 -37.5 t-9 -44.5q-6 -20 -8.5 -35.5t-4.5 -25.5q-16 -80 -37 -224q-12 -72 -21 -129t-15 -94l-23 -121q10 0 21 2q4 0 9 1t7 1q20 0 43 -6t40 -18.5t26.5 -29.5t5.5 -38q-6 -43 -82 -47l-2 14q-10 -4 -29.5 -8t-42.5 -4q-10 0 -27 -80q-20 -121 -22 -234.5t14 -211.5 q25 -125 83.5 -195.5t148.5 -70.5q12 0 27.5 2t28.5 7t23.5 10t12.5 11q-4 2 -8 6t-7.5 8.5t-7.5 8.5q-14 12 -23.5 25.5t-4.5 33.5q6 35 61 35q172 0 147 -131q-12 -74 -100 -113h4q-68 -31 -137 -30q-143 0 -236 98h5q-88 84 -123 221q-20 88 -21 236q0 150 17 325 q2 6 3 17.5t5 11.5q-37 0 -96.5 -3t-126.5 -13q-39 -6 -54.5 -15.5t-38.5 -48.5q-49 -111 -102 -224.5t-104 -223.5q-174 -334 -340 -334q-203 0 -230 362q-12 117 -5 241zM977 549q0 -8 4 -8q16 0 44 2t62 8q41 4 68 5t47 1q4 0 4 8q6 16 18.5 73t28.5 157q33 186 49.5 304 t22.5 165q-25 -39 -69 -127t-111 -224q-82 -168 -123 -259t-45 -105zM1269 1876q10 53 80 53q68 0 101 -49l-2 2q2 -14 8 -33q4 -16 10 -34.5t16 -41.5l11 -35v2q18 -55 27.5 -91t9.5 -44q4 -4 1 -10t-6 -10l-8 -10q-6 -6 -14 -12.5t-12 -2.5q-29 2 -131 141 q-96 139 -91 175z" />
<glyph unicode="&#xc1;" horiz-adv-x="1540" d="M89 163q7 124 30 259q68 379 211 379q84 0 65 -99q-31 -170 -80 -170q-12 0 -19 7.5t-15 17.5q-6 6 -2 10q-16 -6 -39 -127q-16 -98 -22.5 -204.5t-2.5 -210.5q8 -145 38 -220t85 -75q51 0 97 36.5t93 108.5q33 55 117 236q10 18 24.5 47.5t24.5 50.5q16 27 31 61h-2 q27 53 41 84t16 41q2 8 -10 8q-10 0 -33.5 -3t-46.5 -7q-27 -4 -50.5 -6t-37.5 -2q4 0 -4 -20q-23 -66 -57 -66q-37 0 -62 55q-12 23 -15 44.5t1 39.5q12 72 176 90h176q16 0 39 29l55 123q29 61 70 151.5t94 210.5q186 408 264 408q145 0 115 -174q-4 -16 -9 -37.5 t-9 -44.5q-6 -20 -8.5 -35.5t-4.5 -25.5q-16 -80 -37 -224q-12 -72 -21 -129t-15 -94l-23 -121q10 0 21 2q4 0 9 1t7 1q20 0 43 -6t40 -18.5t26.5 -29.5t5.5 -38q-6 -43 -82 -47l-2 14q-10 -4 -29.5 -8t-42.5 -4q-10 0 -27 -80q-20 -121 -22 -234.5t14 -211.5 q25 -125 83.5 -195.5t148.5 -70.5q12 0 27.5 2t28.5 7t23.5 10t12.5 11q-4 2 -8 6t-7.5 8.5t-7.5 8.5q-14 12 -23.5 25.5t-4.5 33.5q6 35 61 35q172 0 147 -131q-12 -74 -100 -113h4q-68 -31 -137 -30q-143 0 -236 98h5q-88 84 -123 221q-20 88 -21 236q0 150 17 325 q2 6 3 17.5t5 11.5q-37 0 -96.5 -3t-126.5 -13q-39 -6 -54.5 -15.5t-38.5 -48.5q-49 -111 -102 -224.5t-104 -223.5q-174 -334 -340 -334q-203 0 -230 362q-12 117 -5 241zM977 549q0 -8 4 -8q16 0 44 2t62 8q41 4 68 5t47 1q4 0 4 8q6 16 18.5 73t28.5 157q33 186 49.5 304 t22.5 165q-25 -39 -69 -127t-111 -224q-82 -168 -123 -259t-45 -105zM1166 1564q1 5 5 9q4 8 23.5 42t58.5 91q16 23 29.5 42.5t23.5 33.5q16 27 27.5 43.5t16.5 22.5q45 49 116 49q70 0 60 -53q-6 -35 -152 -175h2q-143 -137 -178 -141q-8 -4 -13 2t-10 13l-6 14q-4 2 -3 7 z" />
<glyph unicode="&#xc2;" horiz-adv-x="1540" d="M89 163q7 124 30 259q68 379 211 379q84 0 65 -99q-31 -170 -80 -170q-12 0 -19 7.5t-15 17.5q-6 6 -2 10q-16 -6 -39 -127q-16 -98 -22.5 -204.5t-2.5 -210.5q8 -145 38 -220t85 -75q51 0 97 36.5t93 108.5q33 55 117 236q10 18 24.5 47.5t24.5 50.5q16 27 31 61h-2 q27 53 41 84t16 41q2 8 -10 8q-10 0 -33.5 -3t-46.5 -7q-27 -4 -50.5 -6t-37.5 -2q4 0 -4 -20q-23 -66 -57 -66q-37 0 -62 55q-12 23 -15 44.5t1 39.5q12 72 176 90h176q16 0 39 29l55 123q29 61 70 151.5t94 210.5q186 408 264 408q145 0 115 -174q-4 -16 -9 -37.5 t-9 -44.5q-6 -20 -8.5 -35.5t-4.5 -25.5q-16 -80 -37 -224q-12 -72 -21 -129t-15 -94l-23 -121q10 0 21 2q4 0 9 1t7 1q20 0 43 -6t40 -18.5t26.5 -29.5t5.5 -38q-6 -43 -82 -47l-2 14q-10 -4 -29.5 -8t-42.5 -4q-10 0 -27 -80q-20 -121 -22 -234.5t14 -211.5 q25 -125 83.5 -195.5t148.5 -70.5q12 0 27.5 2t28.5 7t23.5 10t12.5 11q-4 2 -8 6t-7.5 8.5t-7.5 8.5q-14 12 -23.5 25.5t-4.5 33.5q6 35 61 35q172 0 147 -131q-12 -74 -100 -113h4q-68 -31 -137 -30q-143 0 -236 98h5q-88 84 -123 221q-20 88 -21 236q0 150 17 325 q2 6 3 17.5t5 11.5q-37 0 -96.5 -3t-126.5 -13q-39 -6 -54.5 -15.5t-38.5 -48.5q-49 -111 -102 -224.5t-104 -223.5q-174 -334 -340 -334q-203 0 -230 362q-12 117 -5 241zM977 549q0 -8 4 -8q16 0 44 2t62 8q41 4 68 5t47 1q4 0 4 8q6 16 18.5 73t28.5 157q33 186 49.5 304 t22.5 165q-25 -39 -69 -127t-111 -224q-82 -168 -123 -259t-45 -105zM1102 1620q2 27 74 67q23 10 115 131q88 113 168 113q74 0 114 -86l35 -86q4 -10 5 -18.5t5 -18.5q0 -2 9.5 -11t21.5 -26q6 -6 11 -10t14 -12q53 -61 49 -88q-8 -49 -70 -49q-88 0 -135 69 q-18 27 -49 127v-2q-14 49 -23 49q-18 0 -47 -43q-27 -41 -48 -68.5t-32 -37.5q-63 -68 -159 -68q-23 0 -42.5 22.5t-15.5 45.5z" />
<glyph unicode="&#xc3;" horiz-adv-x="1540" d="M89 163q7 124 30 259q68 379 211 379q84 0 65 -99q-31 -170 -80 -170q-12 0 -19 7.5t-15 17.5q-6 6 -2 10q-16 -6 -39 -127q-16 -98 -22.5 -204.5t-2.5 -210.5q8 -145 38 -220t85 -75q51 0 97 36.5t93 108.5q33 55 117 236q10 18 24.5 47.5t24.5 50.5q16 27 31 61h-2 q27 53 41 84t16 41q2 8 -10 8q-10 0 -33.5 -3t-46.5 -7q-27 -4 -50.5 -6t-37.5 -2q4 0 -4 -20q-23 -66 -57 -66q-37 0 -62 55q-12 23 -15 44.5t1 39.5q12 72 176 90h176q16 0 39 29l55 123q29 61 70 151.5t94 210.5q186 408 264 408q145 0 115 -174q-4 -16 -9 -37.5 t-9 -44.5q-6 -20 -8.5 -35.5t-4.5 -25.5q-16 -80 -37 -224q-12 -72 -21 -129t-15 -94l-23 -121q10 0 21 2q4 0 9 1t7 1q20 0 43 -6t40 -18.5t26.5 -29.5t5.5 -38q-6 -43 -82 -47l-2 14q-10 -4 -29.5 -8t-42.5 -4q-10 0 -27 -80q-20 -121 -22 -234.5t14 -211.5 q25 -125 83.5 -195.5t148.5 -70.5q12 0 27.5 2t28.5 7t23.5 10t12.5 11q-4 2 -8 6t-7.5 8.5t-7.5 8.5q-14 12 -23.5 25.5t-4.5 33.5q6 35 61 35q172 0 147 -131q-12 -74 -100 -113h4q-68 -31 -137 -30q-143 0 -236 98h5q-88 84 -123 221q-20 88 -21 236q0 150 17 325 q2 6 3 17.5t5 11.5q-37 0 -96.5 -3t-126.5 -13q-39 -6 -54.5 -15.5t-38.5 -48.5q-49 -111 -102 -224.5t-104 -223.5q-174 -334 -340 -334q-203 0 -230 362q-12 117 -5 241zM977 549q0 -8 4 -8q16 0 44 2t62 8q41 4 68 5t47 1q4 0 4 8q6 16 18.5 73t28.5 157q33 186 49.5 304 t22.5 165q-25 -39 -69 -127t-111 -224q-82 -168 -123 -259t-45 -105zM1067 1628q12 59 82 131q74 76 131 76q59 0 105 -84q16 -33 28.5 -49.5t24.5 -16.5q37 0 53 43q39 78 84 78q37 0 52.5 -19.5t9.5 -52.5q-4 -29 -26.5 -61.5t-57.5 -67.5q-72 -66 -127 -65q-68 0 -109 84 q-31 63 -55 63q-37 0 -59 -49q-16 -41 -34 -61.5t-40 -20.5q-74 0 -62 72z" />
<glyph unicode="&#xc4;" horiz-adv-x="1540" d="M89 163q7 124 30 259q68 379 211 379q84 0 65 -99q-31 -170 -80 -170q-12 0 -19 7.5t-15 17.5q-6 6 -2 10q-16 -6 -39 -127q-16 -98 -22.5 -204.5t-2.5 -210.5q8 -145 38 -220t85 -75q51 0 97 36.5t93 108.5q33 55 117 236q10 18 24.5 47.5t24.5 50.5q16 27 31 61h-2 q27 53 41 84t16 41q2 8 -10 8q-10 0 -33.5 -3t-46.5 -7q-27 -4 -50.5 -6t-37.5 -2q4 0 -4 -20q-23 -66 -57 -66q-37 0 -62 55q-12 23 -15 44.5t1 39.5q12 72 176 90h176q16 0 39 29l55 123q29 61 70 151.5t94 210.5q186 408 264 408q145 0 115 -174q-4 -16 -9 -37.5 t-9 -44.5q-6 -20 -8.5 -35.5t-4.5 -25.5q-16 -80 -37 -224q-12 -72 -21 -129t-15 -94l-23 -121q10 0 21 2q4 0 9 1t7 1q20 0 43 -6t40 -18.5t26.5 -29.5t5.5 -38q-6 -43 -82 -47l-2 14q-10 -4 -29.5 -8t-42.5 -4q-10 0 -27 -80q-20 -121 -22 -234.5t14 -211.5 q25 -125 83.5 -195.5t148.5 -70.5q12 0 27.5 2t28.5 7t23.5 10t12.5 11q-4 2 -8 6t-7.5 8.5t-7.5 8.5q-14 12 -23.5 25.5t-4.5 33.5q6 35 61 35q172 0 147 -131q-12 -74 -100 -113h4q-68 -31 -137 -30q-143 0 -236 98h5q-88 84 -123 221q-20 88 -21 236q0 150 17 325 q2 6 3 17.5t5 11.5q-37 0 -96.5 -3t-126.5 -13q-39 -6 -54.5 -15.5t-38.5 -48.5q-49 -111 -102 -224.5t-104 -223.5q-174 -334 -340 -334q-203 0 -230 362q-12 117 -5 241zM977 549q0 -8 4 -8q16 0 44 2t62 8q41 4 68 5t47 1q4 0 4 8q6 16 18.5 73t28.5 157q33 186 49.5 304 t22.5 165q-25 -39 -69 -127t-111 -224q-82 -168 -123 -259t-45 -105zM1136 1607q2 14 12.5 30.5t24.5 30t29.5 23t32.5 9.5q99 -1 81 -97q-8 -45 -33.5 -66.5t-78.5 -21.5q-31 0 -52.5 29t-15.5 63zM1382 1607q2 14 12.5 30.5t23.5 30t29.5 23t32.5 9.5q100 -1 82 -97 q-14 -88 -108 -88q-35 0 -56.5 29t-15.5 63z" />
<glyph unicode="&#xc5;" horiz-adv-x="1540" d="M89 163q7 124 30 259q68 379 211 379q84 0 65 -99q-31 -170 -80 -170q-12 0 -19 7.5t-15 17.5q-6 6 -2 10q-16 -6 -39 -127q-16 -98 -22.5 -204.5t-2.5 -210.5q8 -145 38 -220t85 -75q51 0 97 36.5t93 108.5q33 55 117 236q10 18 24.5 47.5t24.5 50.5q16 27 31 61h-2 q27 53 41 84t16 41q2 8 -10 8q-10 0 -33.5 -3t-46.5 -7q-27 -4 -50.5 -6t-37.5 -2q4 0 -4 -20q-23 -66 -57 -66q-37 0 -62 55q-12 23 -15 44.5t1 39.5q12 72 176 90h176q16 0 39 29l55 123q29 61 70 151.5t94 210.5q186 408 264 408q145 0 115 -174q-4 -16 -9 -37.5 t-9 -44.5q-6 -20 -8.5 -35.5t-4.5 -25.5q-16 -80 -37 -224q-12 -72 -21 -129t-15 -94l-23 -121q10 0 21 2q4 0 9 1t7 1q20 0 43 -6t40 -18.5t26.5 -29.5t5.5 -38q-6 -43 -82 -47l-2 14q-10 -4 -29.5 -8t-42.5 -4q-10 0 -27 -80q-20 -121 -22 -234.5t14 -211.5 q25 -125 83.5 -195.5t148.5 -70.5q12 0 27.5 2t28.5 7t23.5 10t12.5 11q-4 2 -8 6t-7.5 8.5t-7.5 8.5q-14 12 -23.5 25.5t-4.5 33.5q6 35 61 35q172 0 147 -131q-12 -74 -100 -113h4q-68 -31 -137 -30q-143 0 -236 98h5q-88 84 -123 221q-20 88 -21 236q0 150 17 325 q2 6 3 17.5t5 11.5q-37 0 -96.5 -3t-126.5 -13q-39 -6 -54.5 -15.5t-38.5 -48.5q-49 -111 -102 -224.5t-104 -223.5q-174 -334 -340 -334q-203 0 -230 362q-12 117 -5 241zM977 549q0 -8 4 -8q16 0 44 2t62 8q41 4 68 5t47 1q4 0 4 8q6 16 18.5 73t28.5 157q33 186 49.5 304 t22.5 165q-25 -39 -69 -127t-111 -224q-82 -168 -123 -259t-45 -105zM1224 1776q8 47 34 89t62.5 73.5t82 50t92.5 18.5q82 0 129.5 -56.5t31.5 -142.5q-8 -45 -32.5 -87t-61.5 -73.5t-82 -50t-92 -18.5q-41 0 -74.5 15.5t-56 42t-32 62.5t-1.5 77zM1357 1782 q-4 -31 14.5 -51.5t47.5 -20.5q37 0 68.5 27.5t37.5 64.5q4 31 -14 51.5t-47 20.5q-39 0 -69.5 -26.5t-37.5 -65.5z" />
<glyph unicode="&#xc6;" horiz-adv-x="1890" d="M55 -37q-16 266 33 551q49 287 172 287q88 0 66 -139q-25 -129 -66 -130q-18 0 -37 25q-2 0 -8 6q-12 -16 -20 -71q-10 -53 -13.5 -127t-1.5 -172q4 -100 12.5 -173t18.5 -118q25 -84 57.5 -128t69.5 -44q35 0 66.5 25.5t60.5 72.5q12 20 34.5 65.5t55.5 116.5 q96 211 96 213q2 8 -12 8q-115 0 -141 -6q-6 -14 -18.5 -36.5t-26.5 -45.5q-12 -16 -29 -16q-35 6 -66 57q-12 23 -19 43.5t-3 38.5q12 78 168 90h176q18 0 35 29v-2q4 6 25.5 65.5t68.5 169.5q66 170 102.5 263.5t40.5 103.5q41 100 85 192.5t89 165.5q29 51 54.5 79 t48.5 28q102 0 170.5 -47t101.5 -135q135 35 231.5 49t155.5 14t109 -41q57 -49 49 -106q-12 -76 -123 -76q-49 0 -78 47q-18 25 -84 25q-145 0 -243 -35q-25 -6 -35 -23v6q-4 -6 -8.5 -17t-12.5 -34q-49 -123 -96 -299t-84 -389q0 -10 -2 -10q27 0 72 3t108 11 q66 10 116 13.5t87 3.5q152 0 137 -80q-6 -37 -65 -76q-29 -23 -51.5 -30t-45.5 -11l-18 10q-4 2 -7 9.5t-3 13.5l6 16q-31 6 -123 6q-147 0 -240 -32q4 0 0 -23q-35 -193 -46 -297t-3 -127l-2 2q6 -14 15 -14q37 0 90 18l100 45q246 96 526 97q147 -1 131 -87 q-4 -29 -35.5 -52t-80.5 -44q-86 -35 -138 -35q-18 0 -23 5.5t-15 13.5q-16 10 -33 20.5t-39 10.5q-98 0 -320 -78q-49 -20 -109.5 -29.5t-103.5 -9.5q16 -4 12.5 -25.5t-22.5 -21.5q-41 0 -61 86q-33 102 -17 276q0 4 8.5 66.5t24.5 204.5q-4 4 -16 4h-27q-78 0 -139.5 -2 t-100.5 -7q-37 -6 -50 -16t-29 -47v2q-12 -31 -24.5 -62.5t-27.5 -62.5q-16 -49 -36 -100q-33 -84 -71 -147.5t-73 -108.5q-102 -131 -217 -131q-109 0 -167 101t-79 302zM836 377q0 -8 10 -8q23 0 56.5 2t74.5 6q47 4 83 6t60 2q16 0 25 31q2 10 5 19t5 22q10 43 21.5 99 t25.5 128q12 57 72 217q25 70 41 124t22 93q4 29 1 53.5t-13 53.5q-20 53 -59 53q-12 0 -15 -2q-8 -4 -58 -110.5t-151 -319.5q-100 -215 -151 -331t-55 -138z" />
<glyph unicode="&#xc7;" horiz-adv-x="1067" d="M143 358q25 145 88.5 294t169.5 306q254 377 521 377q72 0 123 -32.5t77 -90.5q23 -49 26 -113.5t-9 -135.5q-12 -68 -42 -148t-75 -162q-59 -102 -120.5 -157.5t-125.5 -55.5q-96 0 -84 72q2 14 14.5 45t38.5 78v-4q57 104 86 104q23 0 34.5 -18.5t17.5 -32.5 q6 -10 -2 -10q23 4 63 114q16 45 27.5 89.5t19.5 89.5q39 227 -88 227q-207 0 -409 -311q-86 -135 -140.5 -263t-77.5 -251q-31 -166 5 -285q8 -39 30.5 -77t55.5 -68q74 -72 149 -72q53 0 107.5 17.5t111.5 58.5q98 72 158 180v-2q2 4 3 8t3 8l-2 -2l47 94h-4 q51 100 94 101q39 0 54.5 -36t9.5 -71q-10 -57 -64 -129q-141 -186 -268 -279.5t-242 -93.5q-250 0 -348 209q-78 176 -33 428zM268 -664q2 20 64 72q43 35 45 61q6 37 -29 88q-49 61 -43 96q4 20 29 67.5t70 117.5q8 12 20 12h49q16 0 21.5 -11t-2.5 -24q-23 -29 -34 -49 t-15 -39q-2 -12 34 -71q27 -37 34 -71t1 -67q-4 -27 -25.5 -60.5t-56.5 -72.5q-33 -41 -66.5 -63.5t-56.5 -22.5q-45 0 -39 37z" />
<glyph unicode="&#xc8;" horiz-adv-x="1032" d="M106 268q8 53 166 54q16 0 31 34v-2q35 121 94.5 301.5t143.5 421.5l-2 -4l4 8t4 13q-16 -2 -40 -8.5t-50 -14.5q-59 -27 -56 -47l-2 -14q-4 -27 -30 -23q-29 0 -66 31h4q-49 35 -43 63q6 37 87 74t251 82q25 61 47.5 95t40.5 34q10 0 22.5 -25.5t20.5 -72.5 q266 63 385 63q31 0 59.5 -11t50 -30.5t33 -46t5.5 -55.5q-12 -80 -125 -80q-41 0 -78 45q-16 27 -82 27q-133 0 -244 -37q-29 -10 -61 -70q-23 -49 -56.5 -139t-76.5 -225v2q-88 -274 -105 -367q55 0 168 33q131 29 197 29q147 0 133 -76q-2 -16 -21.5 -39t-46.5 -41 q-51 -37 -98 -39l-20 8q-6 4 -10.5 11.5t-0.5 15.5l6 24q0 -8 -10 -8q-158 0 -307 -49h2q-20 -6 -26.5 -16.5t-12.5 -32.5q-10 -49 -24.5 -119t-24.5 -139q-25 -129 2 -129q10 0 57.5 14t137.5 49q258 96 538 97q135 0 121 -84q-10 -57 -121 -99q-86 -35 -141 -35 q-14 0 -35 15q-12 12 -32.5 23.5t-39.5 11.5q-98 0 -321 -78q-25 -10 -56.5 -16.5t-63.5 -11.5t-59.5 -8t-43.5 -3q16 -4 12 -25.5t-23 -21.5q-35 0 -59 98q-18 125 33 436l4 19q-4 -2 -8 -5l-8 -6q-27 -16 -46 -16q-35 0 -69 62q-20 45 -15 75zM811 1739q10 53 80 53 q68 0 101 -49l-2 2q2 -14 8 -33q4 -16 10 -34.5t16 -41.5l11 -35v2q18 -55 27.5 -91t9.5 -44q4 -4 1 -10t-6 -10l-8 -10q-6 -6 -14 -12.5t-12 -2.5q-29 2 -131 141q-96 139 -91 175z" />
<glyph unicode="&#xc9;" horiz-adv-x="1032" d="M106 268q8 53 166 54q16 0 31 34v-2q35 121 94.5 301.5t143.5 421.5l-2 -4l4 8t4 13q-16 -2 -40 -8.5t-50 -14.5q-59 -27 -56 -47l-2 -14q-4 -27 -30 -23q-29 0 -66 31h4q-49 35 -43 63q6 37 87 74t251 82q25 61 47.5 95t40.5 34q10 0 22.5 -25.5t20.5 -72.5 q266 63 385 63q31 0 59.5 -11t50 -30.5t33 -46t5.5 -55.5q-12 -80 -125 -80q-41 0 -78 45q-16 27 -82 27q-133 0 -244 -37q-29 -10 -61 -70q-23 -49 -56.5 -139t-76.5 -225v2q-88 -274 -105 -367q55 0 168 33q131 29 197 29q147 0 133 -76q-2 -16 -21.5 -39t-46.5 -41 q-51 -37 -98 -39l-20 8q-6 4 -10.5 11.5t-0.5 15.5l6 24q0 -8 -10 -8q-158 0 -307 -49h2q-20 -6 -26.5 -16.5t-12.5 -32.5q-10 -49 -24.5 -119t-24.5 -139q-25 -129 2 -129q10 0 57.5 14t137.5 49q258 96 538 97q135 0 121 -84q-10 -57 -121 -99q-86 -35 -141 -35 q-14 0 -35 15q-12 12 -32.5 23.5t-39.5 11.5q-98 0 -321 -78q-25 -10 -56.5 -16.5t-63.5 -11.5t-59.5 -8t-43.5 -3q16 -4 12 -25.5t-23 -21.5q-35 0 -59 98q-18 125 33 436l4 19q-4 -2 -8 -5l-8 -6q-27 -16 -46 -16q-35 0 -69 62q-20 45 -15 75zM634 1445q1 5 5 9 q4 8 23.5 42t58.5 91q16 23 29.5 42.5t23.5 33.5q16 27 27.5 43.5t16.5 22.5q45 49 116 49q70 0 60 -53q-6 -35 -152 -175h2q-143 -137 -178 -141q-8 -4 -13 2t-10 13l-6 14q-4 2 -3 7z" />
<glyph unicode="&#xca;" horiz-adv-x="1032" d="M106 268q8 53 166 54q16 0 31 34v-2q35 121 94.5 301.5t143.5 421.5l-2 -4l4 8t4 13q-16 -2 -40 -8.5t-50 -14.5q-59 -27 -56 -47l-2 -14q-4 -27 -30 -23q-29 0 -66 31h4q-49 35 -43 63q6 37 87 74t251 82q25 61 47.5 95t40.5 34q10 0 22.5 -25.5t20.5 -72.5 q266 63 385 63q31 0 59.5 -11t50 -30.5t33 -46t5.5 -55.5q-12 -80 -125 -80q-41 0 -78 45q-16 27 -82 27q-133 0 -244 -37q-29 -10 -61 -70q-23 -49 -56.5 -139t-76.5 -225v2q-88 -274 -105 -367q55 0 168 33q131 29 197 29q147 0 133 -76q-2 -16 -21.5 -39t-46.5 -41 q-51 -37 -98 -39l-20 8q-6 4 -10.5 11.5t-0.5 15.5l6 24q0 -8 -10 -8q-158 0 -307 -49h2q-20 -6 -26.5 -16.5t-12.5 -32.5q-10 -49 -24.5 -119t-24.5 -139q-25 -129 2 -129q10 0 57.5 14t137.5 49q258 96 538 97q135 0 121 -84q-10 -57 -121 -99q-86 -35 -141 -35 q-14 0 -35 15q-12 12 -32.5 23.5t-39.5 11.5q-98 0 -321 -78q-25 -10 -56.5 -16.5t-63.5 -11.5t-59.5 -8t-43.5 -3q16 -4 12 -25.5t-23 -21.5q-35 0 -59 98q-18 125 33 436l4 19q-4 -2 -8 -5l-8 -6q-27 -16 -46 -16q-35 0 -69 62q-20 45 -15 75zM618 1524q2 27 74 67 q23 10 115 131q88 113 168 113q74 0 114 -86l35 -86q4 -10 5 -18.5t5 -18.5q0 -2 9.5 -11t21.5 -26q6 -6 11 -10t14 -12q53 -61 49 -88q-8 -49 -70 -49q-88 0 -135 69q-18 27 -49 127v-2q-14 49 -23 49q-18 0 -47 -43q-27 -41 -48 -68.5t-32 -37.5q-63 -68 -159 -68 q-23 0 -42.5 22.5t-15.5 45.5z" />
<glyph unicode="&#xcb;" horiz-adv-x="1032" d="M106 268q8 53 166 54q16 0 31 34v-2q35 121 94.5 301.5t143.5 421.5l-2 -4l4 8t4 13q-16 -2 -40 -8.5t-50 -14.5q-59 -27 -56 -47l-2 -14q-4 -27 -30 -23q-29 0 -66 31h4q-49 35 -43 63q6 37 87 74t251 82q25 61 47.5 95t40.5 34q10 0 22.5 -25.5t20.5 -72.5 q266 63 385 63q31 0 59.5 -11t50 -30.5t33 -46t5.5 -55.5q-12 -80 -125 -80q-41 0 -78 45q-16 27 -82 27q-133 0 -244 -37q-29 -10 -61 -70q-23 -49 -56.5 -139t-76.5 -225v2q-88 -274 -105 -367q55 0 168 33q131 29 197 29q147 0 133 -76q-2 -16 -21.5 -39t-46.5 -41 q-51 -37 -98 -39l-20 8q-6 4 -10.5 11.5t-0.5 15.5l6 24q0 -8 -10 -8q-158 0 -307 -49h2q-20 -6 -26.5 -16.5t-12.5 -32.5q-10 -49 -24.5 -119t-24.5 -139q-25 -129 2 -129q10 0 57.5 14t137.5 49q258 96 538 97q135 0 121 -84q-10 -57 -121 -99q-86 -35 -141 -35 q-14 0 -35 15q-12 12 -32.5 23.5t-39.5 11.5q-98 0 -321 -78q-25 -10 -56.5 -16.5t-63.5 -11.5t-59.5 -8t-43.5 -3q16 -4 12 -25.5t-23 -21.5q-35 0 -59 98q-18 125 33 436l4 19q-4 -2 -8 -5l-8 -6q-27 -16 -46 -16q-35 0 -69 62q-20 45 -15 75zM739 1550q2 14 12.5 30.5 t24.5 30t29.5 23t32.5 9.5q99 -1 81 -97q-8 -45 -33.5 -66.5t-78.5 -21.5q-31 0 -52.5 29t-15.5 63zM985 1550q2 14 12.5 30.5t23.5 30t29.5 23t32.5 9.5q100 -1 82 -97q-14 -88 -108 -88q-35 0 -56.5 29t-15.5 63z" />
<glyph unicode="&#xcc;" horiz-adv-x="1071" d="M98 488.5q-4 150.5 19 289.5q55 299 145 299q35 0 52.5 -21.5t27.5 -68.5q8 -33 8 -63q0 -31 -4 -60q-10 -49 -45 -49q-33 0 -47 23q-20 -129 -21.5 -264.5t15.5 -266.5q23 -188 81 -288.5t150 -100.5q63 0 152 135q29 51 55.5 106.5t44.5 110.5q20 59 46 150.5t59 214.5 t60.5 215t49.5 154q20 63 23 77l-107 -94q-29 -25 -55.5 -50.5t-50.5 -47.5q-45 -41 -78 -75t-53 -62q12 10 32 10q29 0 42.5 -33t9.5 -61q-10 -51 -63.5 -83t-106.5 -32q-94 0 -76 119q20 109 151 246q29 29 91.5 86t164.5 143q78 68 130.5 119t76.5 88v-4q4 12 12.5 27.5 t12.5 21.5v-2q16 29 19 32t9 13q27 43 46.5 63.5t42.5 20.5q37 0 64.5 -31t19.5 -70q-6 -39 -66 -94q-33 -35 -53.5 -56.5t-24.5 -29.5q-25 -33 -50.5 -118t-57.5 -226q-6 -23 -10.5 -46.5t-12.5 -43.5q-27 -117 -44 -192.5t-30 -118.5q-33 -117 -69.5 -218.5t-77.5 -181.5 q-158 -324 -346 -323q-121 0 -201 103.5t-123 301.5q-35 156 -39 306.5zM882 1831q10 53 80 53q68 0 101 -49l-2 2q2 -14 8 -33q4 -16 10 -34.5t16 -41.5l11 -35v2q18 -55 27.5 -91t9.5 -44q4 -4 1 -10t-6 -10l-8 -10q-6 -6 -14 -12.5t-12 -2.5q-29 2 -131 141 q-96 139 -91 175z" />
<glyph unicode="&#xcd;" horiz-adv-x="1069" d="M98 488.5q-4 150.5 19 289.5q55 299 145 299q35 0 52.5 -21.5t27.5 -68.5q8 -33 8 -63q0 -31 -4 -60q-10 -49 -45 -49q-33 0 -47 23q-20 -129 -21.5 -264.5t15.5 -266.5q23 -188 81 -288.5t150 -100.5q63 0 152 135q29 51 55.5 106.5t44.5 110.5q20 59 46 150.5t59 214.5 t60.5 215t49.5 154q20 63 23 77l-107 -94q-29 -25 -55.5 -50.5t-50.5 -47.5q-45 -41 -78 -75t-53 -62q12 10 32 10q29 0 42.5 -33t9.5 -61q-10 -51 -63.5 -83t-106.5 -32q-94 0 -76 119q20 109 151 246q29 29 91.5 86t164.5 143q78 68 130.5 119t76.5 88v-4q4 12 12.5 27.5 t12.5 21.5v-2q16 29 19 32t9 13q27 43 46.5 63.5t42.5 20.5q37 0 64.5 -31t19.5 -70q-6 -39 -66 -94q-33 -35 -53.5 -56.5t-24.5 -29.5q-25 -33 -50.5 -118t-57.5 -226q-6 -23 -10.5 -46.5t-12.5 -43.5q-27 -117 -44 -192.5t-30 -118.5q-33 -117 -69.5 -218.5t-77.5 -181.5 q-158 -324 -346 -323q-121 0 -201 103.5t-123 301.5q-35 156 -39 306.5zM1037 1670q1 5 5 9q4 8 23.5 42t58.5 91q16 23 29.5 42.5t23.5 33.5q16 27 27.5 43.5t16.5 22.5q45 49 116 49q70 0 60 -53q-6 -35 -152 -175h2q-143 -137 -178 -141q-8 -4 -13 2t-10 13l-6 14 q-4 2 -3 7z" />
<glyph unicode="&#xce;" horiz-adv-x="1056" d="M98 488.5q-4 150.5 19 289.5q55 299 145 299q35 0 52.5 -21.5t27.5 -68.5q8 -33 8 -63q0 -31 -4 -60q-10 -49 -45 -49q-33 0 -47 23q-20 -129 -21.5 -264.5t15.5 -266.5q23 -188 81 -288.5t150 -100.5q63 0 152 135q29 51 55.5 106.5t44.5 110.5q20 59 46 150.5t59 214.5 t60.5 215t49.5 154q20 63 23 77l-107 -94q-29 -25 -55.5 -50.5t-50.5 -47.5q-45 -41 -78 -75t-53 -62q12 10 32 10q29 0 42.5 -33t9.5 -61q-10 -51 -63.5 -83t-106.5 -32q-94 0 -76 119q20 109 151 246q29 29 91.5 86t164.5 143q78 68 130.5 119t76.5 88v-4q4 12 12.5 27.5 t12.5 21.5v-2q16 29 19 32t9 13q27 43 46.5 63.5t42.5 20.5q37 0 64.5 -31t19.5 -70q-6 -39 -66 -94q-33 -35 -53.5 -56.5t-24.5 -29.5q-25 -33 -50.5 -118t-57.5 -226q-6 -23 -10.5 -46.5t-12.5 -43.5q-27 -117 -44 -192.5t-30 -118.5q-33 -117 -69.5 -218.5t-77.5 -181.5 q-158 -324 -346 -323q-121 0 -201 103.5t-123 301.5q-35 156 -39 306.5zM866 1708q2 27 74 67q23 10 115 131q88 113 168 113q74 0 114 -86l35 -86q4 -10 5 -18.5t5 -18.5q0 -2 9.5 -11t21.5 -26q6 -6 11 -10t14 -12q53 -61 49 -88q-8 -49 -70 -49q-88 0 -135 69 q-18 27 -49 127v-2q-14 49 -23 49q-18 0 -47 -43q-27 -41 -48 -68.5t-32 -37.5q-63 -68 -159 -68q-23 0 -42.5 22.5t-15.5 45.5z" />
<glyph unicode="&#xcf;" horiz-adv-x="1048" d="M98 488.5q-4 150.5 19 289.5q55 299 145 299q35 0 52.5 -21.5t27.5 -68.5q8 -33 8 -63q0 -31 -4 -60q-10 -49 -45 -49q-33 0 -47 23q-20 -129 -21.5 -264.5t15.5 -266.5q23 -188 81 -288.5t150 -100.5q63 0 152 135q29 51 55.5 106.5t44.5 110.5q20 59 46 150.5t59 214.5 t60.5 215t49.5 154q20 63 23 77l-107 -94q-29 -25 -55.5 -50.5t-50.5 -47.5q-45 -41 -78 -75t-53 -62q12 10 32 10q29 0 42.5 -33t9.5 -61q-10 -51 -63.5 -83t-106.5 -32q-94 0 -76 119q20 109 151 246q29 29 91.5 86t164.5 143q78 68 130.5 119t76.5 88v-4q4 12 12.5 27.5 t12.5 21.5v-2q16 29 19 32t9 13q27 43 46.5 63.5t42.5 20.5q37 0 64.5 -31t19.5 -70q-6 -39 -66 -94q-33 -35 -53.5 -56.5t-24.5 -29.5q-25 -33 -50.5 -118t-57.5 -226q-6 -23 -10.5 -46.5t-12.5 -43.5q-27 -117 -44 -192.5t-30 -118.5q-33 -117 -69.5 -218.5t-77.5 -181.5 q-158 -324 -346 -323q-121 0 -201 103.5t-123 301.5q-35 156 -39 306.5zM958 1697q2 14 12.5 30.5t24.5 30t29.5 23t32.5 9.5q99 -1 81 -97q-8 -45 -33.5 -66.5t-78.5 -21.5q-31 0 -52.5 29t-15.5 63zM1204 1697q2 14 12.5 30.5t23.5 30t29.5 23t32.5 9.5q100 -1 82 -97 q-14 -88 -108 -88q-35 0 -56.5 29t-15.5 63z" />
<glyph unicode="&#xd0;" horiz-adv-x="1273" d="M-80 1030q10 63 95 119.5t253 107.5q135 43 238.5 63.5t177.5 20.5q371 0 530 -239q146 -221 80 -596q-47 -281 -260 -498q-227 -242 -506 -241q-61 0 -130.5 11t-139.5 27q-29 10 -48.5 29t-25.5 41v-2q-10 18 -4 51q4 23 22.5 46.5t37.5 41.5l18 21q4 6 11 42t18 101 q10 55 15 86t7 33q-4 27 -11 40t-28 13q-4 0 -17 -1t-26 -3q-10 0 -22 -2t-22.5 -3t-17.5 -2t-5 -1q-59 0 -43 80q12 66 121 65q6 0 19 -1t30 -1q14 -2 26 -2h23q12 0 22 29q12 39 23.5 83t26.5 85q10 41 22 85t25 85q41 135 83 213t76 78q96 0 72 -142q-6 -31 -45 -84h4 q-18 -18 -27 -32q-10 -12 -16 -18.5t-10 -10.5l2 2q-8 -12 -22.5 -53t-32.5 -109q-23 -66 -33 -109.5t-14 -66.5q-6 -37 49 -37h51q29 0 67 2q39 2 68 2h47q61 0 49 -71q-12 -72 -75 -72h-130q-45 4 -77 4h-54q-53 0 -71 -107l-15 -100q-31 -168 -20 -190q14 -37 158 -37 q231 0 415 209q86 96 137.5 203.5t73.5 232.5q23 135 3.5 251t-87.5 208q-129 190 -399 190q-147 0 -282.5 -40t-237.5 -105q-2 -2 -5 -4t-3 -4q0 -8 14 -17q10 -16 21.5 -29.5t7.5 -31.5q-6 -39 -68 -58q-51 -14 -76 -14q-29 0 -54.5 10.5t-45 28.5t-28.5 43t-5 51z" />
<glyph unicode="&#xd1;" horiz-adv-x="1110" d="M94 -170q20 113 52 249t79 300q39 135 76 270t78 273q51 178 98 284.5t86 106.5q84 0 109 -187q6 -63 7 -202.5t-1 -358.5q-2 -174 8 -308t33 -232q4 -4 4 -13q0 -6 2 -14l2 2q4 -8 4 -12q0 -6 2 -11q-2 -2 0 -4q27 53 74 208t117 409q80 307 147.5 497.5t118.5 264.5 q45 59 86 59q61 0 74 -125v2q5 -81 -7 -147q-14 -84 -57 -84q-49 0 -61 69q0 4 -2 8.5t-2 6.5q-47 -113 -162 -535q-47 -178 -89 -340t-73 -307q-45 -195 -156 -195q-150 0 -184 541q-2 166 -5 331t-7 331q0 4 1 8t-3 8q-31 -74 -76 -205t-92 -295q-47 -166 -80 -304 t-49 -236q-8 -53 4 -64v2q43 -20 33 -78q-4 -20 -14.5 -46.5t-26.5 -59.5q-47 -86 -92 -86q-92 0 -56 219zM700 1505q12 59 82 131q74 76 131 76q59 0 105 -84q16 -33 28.5 -49.5t24.5 -16.5q37 0 53 43q39 78 84 78q37 0 52.5 -19.5t9.5 -52.5q-4 -29 -26.5 -61.5 t-57.5 -67.5q-72 -66 -127 -65q-68 0 -109 84q-31 63 -55 63q-37 0 -59 -49q-16 -41 -34 -61.5t-40 -20.5q-74 0 -62 72z" />
<glyph unicode="&#xd2;" d="M203 154q-8 122 14 254q31 174 108.5 328.5t200.5 297.5q123 131 189 131q47 0 59 -39q92 152 180 232t166 80q172 0 191 -281q4 -78 -4.5 -174t-28.5 -211q-29 -164 -81 -328.5t-124 -318.5q-102 -211 -224 -330t-245 -119q-127 0 -217 68t-139 190q-37 98 -45 220z M311 180q10 -61 33 -126.5t57 -116.5q84 -129 195 -130q104 0 200.5 108t188.5 318v-2q68 156 115 310.5t76 318.5q80 451 -84 451q-25 0 -56.5 -25.5t-68.5 -72t-79 -111t-85 -141.5q-82 -160 -136.5 -285t-68.5 -205q-16 -94 -18 -127q8 16 20 27.5t33 11.5q49 0 35 -80 q-4 -23 -16.5 -44t-30 -37.5t-38 -27t-40.5 -10.5q-107 0 -64 242q35 201 191 516q-12 0 -27 8h2q-2 2 -4 2t-4 2q-2 0 -4 2q-20 -2 -54 -36.5t-77 -96.5q-63 -96 -109.5 -196.5t-62.5 -186.5l-8 -47q-25 -100 -11 -213zM913 1870q10 53 80 53q68 0 101 -49l-2 2 q2 -14 8 -33q4 -16 10 -34.5t16 -41.5l11 -35v2q18 -55 27.5 -91t9.5 -44q4 -4 1 -10t-6 -10l-8 -10q-6 -6 -14 -12.5t-12 -2.5q-29 2 -131 141q-96 139 -91 175z" />
<glyph unicode="&#xd3;" d="M203 154q-8 122 14 254q31 174 108.5 328.5t200.5 297.5q123 131 189 131q47 0 59 -39q92 152 180 232t166 80q172 0 191 -281q4 -78 -4.5 -174t-28.5 -211q-29 -164 -81 -328.5t-124 -318.5q-102 -211 -224 -330t-245 -119q-127 0 -217 68t-139 190q-37 98 -45 220z M311 180q10 -61 33 -126.5t57 -116.5q84 -129 195 -130q104 0 200.5 108t188.5 318v-2q68 156 115 310.5t76 318.5q80 451 -84 451q-25 0 -56.5 -25.5t-68.5 -72t-79 -111t-85 -141.5q-82 -160 -136.5 -285t-68.5 -205q-16 -94 -18 -127q8 16 20 27.5t33 11.5q49 0 35 -80 q-4 -23 -16.5 -44t-30 -37.5t-38 -27t-40.5 -10.5q-107 0 -64 242q35 201 191 516q-12 0 -27 8h2q-2 2 -4 2t-4 2q-2 0 -4 2q-20 -2 -54 -36.5t-77 -96.5q-63 -96 -109.5 -196.5t-62.5 -186.5l-8 -47q-25 -100 -11 -213zM875 1555q1 5 5 9q4 8 23.5 42t58.5 91 q16 23 29.5 42.5t23.5 33.5q16 27 27.5 43.5t16.5 22.5q45 49 116 49q70 0 60 -53q-6 -35 -152 -175h2q-143 -137 -178 -141q-8 -4 -13 2t-10 13l-6 14q-4 2 -3 7z" />
<glyph unicode="&#xd4;" d="M203 154q-8 122 14 254q31 174 108.5 328.5t200.5 297.5q123 131 189 131q47 0 59 -39q92 152 180 232t166 80q172 0 191 -281q4 -78 -4.5 -174t-28.5 -211q-29 -164 -81 -328.5t-124 -318.5q-102 -211 -224 -330t-245 -119q-127 0 -217 68t-139 190q-37 98 -45 220z M311 180q10 -61 33 -126.5t57 -116.5q84 -129 195 -130q104 0 200.5 108t188.5 318v-2q68 156 115 310.5t76 318.5q80 451 -84 451q-25 0 -56.5 -25.5t-68.5 -72t-79 -111t-85 -141.5q-82 -160 -136.5 -285t-68.5 -205q-16 -94 -18 -127q8 16 20 27.5t33 11.5q49 0 35 -80 q-4 -23 -16.5 -44t-30 -37.5t-38 -27t-40.5 -10.5q-107 0 -64 242q35 201 191 516q-12 0 -27 8h2q-2 2 -4 2t-4 2q-2 0 -4 2q-20 -2 -54 -36.5t-77 -96.5q-63 -96 -109.5 -196.5t-62.5 -186.5l-8 -47q-25 -100 -11 -213zM772 1573q2 27 74 67q23 10 115 131q88 113 168 113 q74 0 114 -86l35 -86q4 -10 5 -18.5t5 -18.5q0 -2 9.5 -11t21.5 -26q6 -6 11 -10t14 -12q53 -61 49 -88q-8 -49 -70 -49q-88 0 -135 69q-18 27 -49 127v-2q-14 49 -23 49q-18 0 -47 -43q-27 -41 -48 -68.5t-32 -37.5q-63 -68 -159 -68q-23 0 -42.5 22.5t-15.5 45.5z" />
<glyph unicode="&#xd5;" d="M203 154q-8 122 14 254q31 174 108.5 328.5t200.5 297.5q123 131 189 131q47 0 59 -39q92 152 180 232t166 80q172 0 191 -281q4 -78 -4.5 -174t-28.5 -211q-29 -164 -81 -328.5t-124 -318.5q-102 -211 -224 -330t-245 -119q-127 0 -217 68t-139 190q-37 98 -45 220z M311 180q10 -61 33 -126.5t57 -116.5q84 -129 195 -130q104 0 200.5 108t188.5 318v-2q68 156 115 310.5t76 318.5q80 451 -84 451q-25 0 -56.5 -25.5t-68.5 -72t-79 -111t-85 -141.5q-82 -160 -136.5 -285t-68.5 -205q-16 -94 -18 -127q8 16 20 27.5t33 11.5q49 0 35 -80 q-4 -23 -16.5 -44t-30 -37.5t-38 -27t-40.5 -10.5q-107 0 -64 242q35 201 191 516q-12 0 -27 8h2q-2 2 -4 2t-4 2q-2 0 -4 2q-20 -2 -54 -36.5t-77 -96.5q-63 -96 -109.5 -196.5t-62.5 -186.5l-8 -47q-25 -100 -11 -213zM747 1634q12 59 82 131q74 76 131 76q59 0 105 -84 q16 -33 28.5 -49.5t24.5 -16.5q37 0 53 43q39 78 84 78q37 0 52.5 -19.5t9.5 -52.5q-4 -29 -26.5 -61.5t-57.5 -67.5q-72 -66 -127 -65q-68 0 -109 84q-31 63 -55 63q-37 0 -59 -49q-16 -41 -34 -61.5t-40 -20.5q-74 0 -62 72z" />
<glyph unicode="&#xd6;" d="M203 154q-8 122 14 254q31 174 108.5 328.5t200.5 297.5q123 131 189 131q47 0 59 -39q92 152 180 232t166 80q172 0 191 -281q4 -78 -4.5 -174t-28.5 -211q-29 -164 -81 -328.5t-124 -318.5q-102 -211 -224 -330t-245 -119q-127 0 -217 68t-139 190q-37 98 -45 220z M311 180q10 -61 33 -126.5t57 -116.5q84 -129 195 -130q104 0 200.5 108t188.5 318v-2q68 156 115 310.5t76 318.5q80 451 -84 451q-25 0 -56.5 -25.5t-68.5 -72t-79 -111t-85 -141.5q-82 -160 -136.5 -285t-68.5 -205q-16 -94 -18 -127q8 16 20 27.5t33 11.5q49 0 35 -80 q-4 -23 -16.5 -44t-30 -37.5t-38 -27t-40.5 -10.5q-107 0 -64 242q35 201 191 516q-12 0 -27 8h2q-2 2 -4 2t-4 2q-2 0 -4 2q-20 -2 -54 -36.5t-77 -96.5q-63 -96 -109.5 -196.5t-62.5 -186.5l-8 -47q-25 -100 -11 -213zM815 1638q2 14 12.5 30.5t24.5 30t29.5 23t32.5 9.5 q99 -1 81 -97q-8 -45 -33.5 -66.5t-78.5 -21.5q-31 0 -52.5 29t-15.5 63zM1061 1638q2 14 12.5 30.5t23.5 30t29.5 23t32.5 9.5q100 -1 82 -97q-14 -88 -108 -88q-35 0 -56.5 29t-15.5 63z" />
<glyph unicode="&#xd7;" horiz-adv-x="909" d="M213 78q6 29 127 135q45 43 72.5 68.5t40.5 37.5q-10 16 -31 47t-55 74q-84 106 -80 135q12 63 65 87q12 4 21 0q16 -10 44.5 -45t67.5 -97q27 -41 42.5 -67.5t25.5 -36.5q246 246 285 252q4 4 11 0t11 -9q18 -25 12 -69q-8 -49 -139 -168q-111 -98 -110 -100 q0 -2 22.5 -30t54.5 -69q92 -103 84 -160q-2 -8 -8 -20t-15 -24.5t-20.5 -20.5t-19.5 -8q-33 0 -123 131q-35 47 -53.5 74.5t-22.5 35.5q-4 -10 -106 -106q-66 -66 -110 -99.5t-60 -35.5q-10 0 -21 10q-20 27 -12 78z" />
<glyph unicode="&#xd8;" d="M250 598q20 117 67.5 228.5t114.5 205.5q92 133 162 133q49 0 68 -32q131 299 286 305l8 47q20 133 86 133q80 0 54 -160q-4 -16 -7.5 -33.5t-9.5 -35.5q66 -59 102 -179t44 -309q10 -141 1 -279.5t-32 -273.5q-23 -123 -55.5 -230.5t-75.5 -193.5 q-63 -111 -151.5 -181.5t-182.5 -66.5l-14 -82q-4 -31 -8.5 -62.5t-8.5 -47.5q-23 -115 -63 -115q-61 0 -80 76l2 2q-4 8 8.5 74.5t36.5 185.5q-109 47 -189.5 137t-127.5 226q-84 242 -35 528zM345 339q11 -110 46 -214q41 -102 99.5 -175t136.5 -112q53 272 125.5 636 t169.5 833q-78 -27 -181 -287q-45 -111 -75.5 -215.5t-44.5 -186.5q-14 -78 -15 -141q0 -63 10 -108v-11q18 25 43 25q59 0 46 -92q-18 -106 -109 -107q-96 0 -104 199q-3 121 22 260q12 74 30.5 149.5t43.5 149.5q-14 0 -31 8h2q-2 2 -4 2t-4 2q-2 0 -4 2q-49 0 -119 -161 q-29 -70 -48.5 -129.5t-27.5 -110.5q-18 -106 -7 -216zM752 -193q119 18 209 207q67 145 104 342q23 127 32 252t9 240q2 137 -15.5 237.5t-52.5 157.5q-41 -147 -80.5 -321t-74.5 -379q-35 -188 -66 -365.5t-65 -370.5z" />
<glyph unicode="&#xd9;" horiz-adv-x="1255" d="M184 160q-6 119 17 248q39 217 143.5 411.5t265.5 360.5q127 127 203 127q33 0 49.5 -23.5t5.5 -75.5q-2 -14 -13 -35.5t-25.5 -42t-31 -35t-30.5 -14.5q-4 0 -11 2t-14 7l2 -5q-8 0 -14 2t-10 5q-6 -2 -15.5 -8.5t-19.5 -14.5q-127 -102 -231 -311q-96 -186 -127 -363 q-37 -201 8 -362q51 -207 219 -207q166 0 344 307q76 125 125 242t76 227v10v13q2 10 2 26v39q2 53 9 114.5t19 133.5q10 51 21.5 102.5t28.5 110.5q53 178 98 178q57 0 51 -182q-4 -57 -8 -107.5t-12 -95.5q-14 -78 -46 -190.5t-81 -261.5q-47 -147 -80 -258t-45 -183 q-25 -139 -8.5 -207.5t69.5 -68.5q31 0 73 15t95 50q61 35 97 54.5t42 19.5q58 0 48 -66q-12 -66 -160 -143q-137 -72 -203 -72q-119 0 -176 119q-10 27 -16 142q0 45 -5 55q-39 -59 -69.5 -99t-63.5 -69q-49 -47 -106.5 -67.5t-116.5 -20.5q-123 0 -207 67.5t-129 186.5 q-31 94 -37 213zM886 1639q10 53 80 53q68 0 101 -49l-2 2q2 -14 8 -33q4 -16 10 -34.5t16 -41.5l11 -35v2q18 -55 27.5 -91t9.5 -44q4 -4 1 -10t-6 -10l-8 -10q-6 -6 -14 -12.5t-12 -2.5q-29 2 -131 141q-96 139 -91 175z" />
<glyph unicode="&#xda;" horiz-adv-x="1255" d="M184 160q-6 119 17 248q39 217 143.5 411.5t265.5 360.5q127 127 203 127q33 0 49.5 -23.5t5.5 -75.5q-2 -14 -13 -35.5t-25.5 -42t-31 -35t-30.5 -14.5q-4 0 -11 2t-14 7l2 -5q-8 0 -14 2t-10 5q-6 -2 -15.5 -8.5t-19.5 -14.5q-127 -102 -231 -311q-96 -186 -127 -363 q-37 -201 8 -362q51 -207 219 -207q166 0 344 307q76 125 125 242t76 227v10v13q2 10 2 26v39q2 53 9 114.5t19 133.5q10 51 21.5 102.5t28.5 110.5q53 178 98 178q57 0 51 -182q-4 -57 -8 -107.5t-12 -95.5q-14 -78 -46 -190.5t-81 -261.5q-47 -147 -80 -258t-45 -183 q-25 -139 -8.5 -207.5t69.5 -68.5q31 0 73 15t95 50q61 35 97 54.5t42 19.5q58 0 48 -66q-12 -66 -160 -143q-137 -72 -203 -72q-119 0 -176 119q-10 27 -16 142q0 45 -5 55q-39 -59 -69.5 -99t-63.5 -69q-49 -47 -106.5 -67.5t-116.5 -20.5q-123 0 -207 67.5t-129 186.5 q-31 94 -37 213zM927 1412q1 5 5 9q4 8 23.5 42t58.5 91q16 23 29.5 42.5t23.5 33.5q16 27 27.5 43.5t16.5 22.5q45 49 116 49q70 0 60 -53q-6 -35 -152 -175h2q-143 -137 -178 -141q-8 -4 -13 2t-10 13l-6 14q-4 2 -3 7z" />
<glyph unicode="&#xdb;" horiz-adv-x="1255" d="M184 160q-6 119 17 248q39 217 143.5 411.5t265.5 360.5q127 127 203 127q33 0 49.5 -23.5t5.5 -75.5q-2 -14 -13 -35.5t-25.5 -42t-31 -35t-30.5 -14.5q-4 0 -11 2t-14 7l2 -5q-8 0 -14 2t-10 5q-6 -2 -15.5 -8.5t-19.5 -14.5q-127 -102 -231 -311q-96 -186 -127 -363 q-37 -201 8 -362q51 -207 219 -207q166 0 344 307q76 125 125 242t76 227v10v13q2 10 2 26v39q2 53 9 114.5t19 133.5q10 51 21.5 102.5t28.5 110.5q53 178 98 178q57 0 51 -182q-4 -57 -8 -107.5t-12 -95.5q-14 -78 -46 -190.5t-81 -261.5q-47 -147 -80 -258t-45 -183 q-25 -139 -8.5 -207.5t69.5 -68.5q31 0 73 15t95 50q61 35 97 54.5t42 19.5q58 0 48 -66q-12 -66 -160 -143q-137 -72 -203 -72q-119 0 -176 119q-10 27 -16 142q0 45 -5 55q-39 -59 -69.5 -99t-63.5 -69q-49 -47 -106.5 -67.5t-116.5 -20.5q-123 0 -207 67.5t-129 186.5 q-31 94 -37 213zM757 1520q2 27 74 67q23 10 115 131q88 113 168 113q74 0 114 -86l35 -86q4 -10 5 -18.5t5 -18.5q0 -2 9.5 -11t21.5 -26q6 -6 11 -10t14 -12q53 -61 49 -88q-8 -49 -70 -49q-88 0 -135 69q-18 27 -49 127v-2q-14 49 -23 49q-18 0 -47 -43 q-27 -41 -48 -68.5t-32 -37.5q-63 -68 -159 -68q-23 0 -42.5 22.5t-15.5 45.5z" />
<glyph unicode="&#xdc;" horiz-adv-x="1255" d="M184 160q-6 119 17 248q39 217 143.5 411.5t265.5 360.5q127 127 203 127q33 0 49.5 -23.5t5.5 -75.5q-2 -14 -13 -35.5t-25.5 -42t-31 -35t-30.5 -14.5q-4 0 -11 2t-14 7l2 -5q-8 0 -14 2t-10 5q-6 -2 -15.5 -8.5t-19.5 -14.5q-127 -102 -231 -311q-96 -186 -127 -363 q-37 -201 8 -362q51 -207 219 -207q166 0 344 307q76 125 125 242t76 227v10v13q2 10 2 26v39q2 53 9 114.5t19 133.5q10 51 21.5 102.5t28.5 110.5q53 178 98 178q57 0 51 -182q-4 -57 -8 -107.5t-12 -95.5q-14 -78 -46 -190.5t-81 -261.5q-47 -147 -80 -258t-45 -183 q-25 -139 -8.5 -207.5t69.5 -68.5q31 0 73 15t95 50q61 35 97 54.5t42 19.5q58 0 48 -66q-12 -66 -160 -143q-137 -72 -203 -72q-119 0 -176 119q-10 27 -16 142q0 45 -5 55q-39 -59 -69.5 -99t-63.5 -69q-49 -47 -106.5 -67.5t-116.5 -20.5q-123 0 -207 67.5t-129 186.5 q-31 94 -37 213zM852 1525q2 14 12.5 30.5t24.5 30t29.5 23t32.5 9.5q99 -1 81 -97q-8 -45 -33.5 -66.5t-78.5 -21.5q-31 0 -52.5 29t-15.5 63zM1098 1525q2 14 12.5 30.5t23.5 30t29.5 23t32.5 9.5q100 -1 82 -97q-14 -88 -108 -88q-35 0 -56.5 29t-15.5 63z" />
<glyph unicode="&#xdd;" horiz-adv-x="1425" d="M6 -462q-2 69 10 147q10 61 32 124.5t50 129.5q96 186 197 186q94 0 63 -174q-14 -90 -59 -90q-20 0 -30.5 11t-16.5 26q-4 6 0 6q-25 -2 -59 -80q-31 -66 -43 -131q-18 -111 12 -187q14 -47 47 -67.5t78 -20.5q59 0 143 76t184 215q92 135 149.5 244.5t70.5 181.5 q10 66 -8.5 198t-65.5 341q-98 420 -168 420q-20 0 -72 -64q-78 -84 -121 -84q-47 0 -37 64q12 72 89 184q41 66 79.5 101.5t71.5 35.5q49 0 101.5 -80t99.5 -217q29 -86 55.5 -187.5t42.5 -193.5q14 -59 21.5 -131.5t11.5 -156.5l2 2q0 -20 2 -25q10 23 41 94.5t72 175.5 q59 137 119.5 278.5t119.5 276.5q25 57 43.5 97.5t30.5 60.5q55 74 147 74q55 0 84 -68q10 -23 12.5 -48t-1.5 -52q-6 -27 -31 -37h4q-16 -6 -41 -2q-10 2 -29 2h-41q-18 0 -79.5 -118t-161.5 -359q-166 -385 -271.5 -617.5t-148.5 -312.5q-283 -512 -557 -512 q-156 0 -215 139q-27 55 -29 124zM978 1312q1 5 5 9q4 8 23.5 42t58.5 91q16 23 29.5 42.5t23.5 33.5q16 27 27.5 43.5t16.5 22.5q45 49 116 49q70 0 60 -53q-6 -35 -152 -175h2q-143 -137 -178 -141q-8 -4 -13 2t-10 13l-6 14q-4 2 -3 7z" />
<glyph unicode="&#xde;" horiz-adv-x="1757" d="M49 702q12 72 94 142.5t217 130.5q88 41 185.5 70.5t193.5 50.5q55 184 100.5 273t86.5 89q18 0 38.5 -7t37 -19.5t26.5 -29t6 -34.5q-2 -25 -33 -68q-16 -27 -25 -40t-13 -17q4 4 1 -10t-12 -37q-6 -18 -9 -26.5t-11 -36.5q57 8 108.5 11t102.5 3q129 0 245.5 -30 t215.5 -83q123 -72 178 -168t35 -217q-43 -233 -453 -370q-313 -109 -578 -109h-22q-12 0 -23 2h-34q-16 0 -17 -2q-10 -57 -16 -162q-4 -59 -5 -95t5 -40l37 -29q33 -25 26 -63q-4 -18 -17 -42t-31.5 -44.5t-40 -34.5t-40.5 -14q-55 0 -79.5 59t-12.5 180q8 74 16.5 145.5 t14.5 143.5q-2 16 -19 27h2q-76 27 -139 55q-100 55 -88 125q8 47 70 47q12 0 37.5 -14.5t66.5 -42.5v2q33 -23 58.5 -36t39.5 -13q-6 4 0 41q2 10 4.5 22t6.5 29q0 14 3 31.5t3 23.5q23 117 46.5 235.5t55.5 241.5q-223 -57 -339.5 -112.5t-127.5 -108.5q-4 -23 35 -55 q55 -47 49 -92q-6 -41 -73 -41q-35 0 -68 11t-61 30q-33 27 -49.5 56.5t-10.5 65.5zM717 315q0 -4 16 -4q252 0 527 74q362 104 393 266q31 180 -162 281q-86 41 -176 63.5t-195 22.5q-88 0 -227 -27q-78 -262 -120 -429t-56 -247z" />
<glyph unicode="&#xdf;" horiz-adv-x="944" d="M-270 -406q6 37 69 74l-2 -2q20 12 41 24.5t35 16.5q76 61 141.5 179t128.5 296q47 129 81 265.5t59 281.5q4 27 10 66t10 92l6 55q4 29 8.5 58.5t8.5 48.5q12 70 38.5 136t71.5 132q113 168 240 168q88 0 149.5 -43t100.5 -125q29 -72 37 -149.5t-9 -170.5 q-20 -125 -88 -233q-90 -145 -204 -148q6 -23 23 -47t42 -57q53 -66 84 -110t45 -66q63 -119 43 -234q-10 -57 -37.5 -109t-79.5 -99l2 4q-104 -104 -217 -105q-162 0 -264 172q-10 18 -15 33.5t-1 28.5q2 14 11 32.5t24 40.5q45 51 73 52q14 0 27.5 -10.5t25 -26t16.5 -34 t3 -32.5q-2 -6 -5 -14t-7 -15q-10 -12 -11 -20q-6 -31 52 -47q43 -14 98 -14q45 0 98 65q53 63 64 119q18 104 -117 283q-143 199 -129 280q12 74 123 74q63 0 115 100q41 80 57 176q10 53 3 102.5t-28 100.5h2q-45 100 -143 100q-106 0 -168 -342q-4 -18 -7 -43.5t-5 -56.5 q-4 -10 -4 -20t-2 -25q-4 -43 -10.5 -85t-10.5 -65q-33 -186 -76 -350t-100 -307q-174 -451 -422 -532h4q-10 -4 -24 -5q-29 0 -58.5 28t-25.5 58z" />
<glyph unicode="&#xe0;" horiz-adv-x="782" d="M-53 193q2 16 78 92l84 84l-5 -2q135 178 234 178q29 0 55.5 -10.5t48 -29t33.5 -41t12 -46.5q16 14 29 14q86 0 74 -72q-4 -29 -11.5 -44t-15.5 -35q-10 -23 -16 -42.5t-8 -29.5q-12 -82 24 -82q70 0 123 53l21.5 21.5l21.5 21.5q12 10 23.5 24.5t27.5 26.5q2 4 8.5 6.5 t8.5 2.5q63 0 51 -70q-16 -74 -125 -154q-51 -35 -96 -54t-80 -19q-98 0 -117 90v71v27q-18 -23 -37.5 -46.5t-36.5 -45.5q-37 -47 -77.5 -71.5t-81.5 -24.5q-96 0 -129 61q-4 18 -10.5 42t-10.5 56q-10 -8 -24.5 -13t-24.5 -5q-63 0 -51 66zM174 221q-18 -102 21 -102 q61 0 165 143q25 35 45.5 63.5t38.5 51.5q-16 0 -34.5 5t-34.5 11l2 -2q-18 4 -44 9.5t-20 7.5q-49 -4 -86 -64q-23 -29 -35 -60.5t-18 -62.5zM301 1049q10 53 80 53q68 0 101 -49l-2 2q2 -14 8 -33q4 -16 10 -34.5t16 -41.5l11 -35v2q18 -55 27.5 -91t9.5 -44q4 -4 1 -10 t-6 -10l-8 -10q-6 -6 -14 -12.5t-12 -2.5q-29 2 -131 141q-96 139 -91 175z" />
<glyph unicode="&#xe1;" horiz-adv-x="782" d="M-53 193q2 16 78 92l84 84l-5 -2q135 178 234 178q29 0 55.5 -10.5t48 -29t33.5 -41t12 -46.5q16 14 29 14q86 0 74 -72q-4 -29 -11.5 -44t-15.5 -35q-10 -23 -16 -42.5t-8 -29.5q-12 -82 24 -82q70 0 123 53l21.5 21.5l21.5 21.5q12 10 23.5 24.5t27.5 26.5q2 4 8.5 6.5 t8.5 2.5q63 0 51 -70q-16 -74 -125 -154q-51 -35 -96 -54t-80 -19q-98 0 -117 90v71v27q-18 -23 -37.5 -46.5t-36.5 -45.5q-37 -47 -77.5 -71.5t-81.5 -24.5q-96 0 -129 61q-4 18 -10.5 42t-10.5 56q-10 -8 -24.5 -13t-24.5 -5q-63 0 -51 66zM174 221q-18 -102 21 -102 q61 0 165 143q25 35 45.5 63.5t38.5 51.5q-16 0 -34.5 5t-34.5 11l2 -2q-18 4 -44 9.5t-20 7.5q-49 -4 -86 -64q-23 -29 -35 -60.5t-18 -62.5zM355 769q1 5 5 9q4 8 23.5 42t58.5 91q16 23 29.5 42.5t23.5 33.5q16 27 27.5 43.5t16.5 22.5q45 49 116 49q70 0 60 -53 q-6 -35 -152 -175h2q-143 -137 -178 -141q-8 -4 -13 2t-10 13l-6 14q-4 2 -3 7z" />
<glyph unicode="&#xe2;" horiz-adv-x="782" d="M-53 193q2 16 78 92l84 84l-5 -2q135 178 234 178q29 0 55.5 -10.5t48 -29t33.5 -41t12 -46.5q16 14 29 14q86 0 74 -72q-4 -29 -11.5 -44t-15.5 -35q-10 -23 -16 -42.5t-8 -29.5q-12 -82 24 -82q70 0 123 53l21.5 21.5l21.5 21.5q12 10 23.5 24.5t27.5 26.5q2 4 8.5 6.5 t8.5 2.5q63 0 51 -70q-16 -74 -125 -154q-51 -35 -96 -54t-80 -19q-98 0 -117 90v71v27q-18 -23 -37.5 -46.5t-36.5 -45.5q-37 -47 -77.5 -71.5t-81.5 -24.5q-96 0 -129 61q-4 18 -10.5 42t-10.5 56q-10 -8 -24.5 -13t-24.5 -5q-63 0 -51 66zM133 758q2 27 74 67 q23 10 115 131q88 113 168 113q74 0 114 -86l35 -86q4 -10 5 -18.5t5 -18.5q0 -2 9.5 -11t21.5 -26q6 -6 11 -10t14 -12q53 -61 49 -88q-8 -49 -70 -49q-88 0 -135 69q-18 27 -49 127v-2q-14 49 -23 49q-18 0 -47 -43q-27 -41 -48 -68.5t-32 -37.5q-63 -68 -159 -68 q-23 0 -42.5 22.5t-15.5 45.5zM174 221q-18 -102 21 -102q61 0 165 143q25 35 45.5 63.5t38.5 51.5q-16 0 -34.5 5t-34.5 11l2 -2q-18 4 -44 9.5t-20 7.5q-49 -4 -86 -64q-23 -29 -35 -60.5t-18 -62.5z" />
<glyph unicode="&#xe3;" horiz-adv-x="782" d="M-53 193q2 16 78 92l84 84l-5 -2q135 178 234 178q29 0 55.5 -10.5t48 -29t33.5 -41t12 -46.5q16 14 29 14q86 0 74 -72q-4 -29 -11.5 -44t-15.5 -35q-10 -23 -16 -42.5t-8 -29.5q-12 -82 24 -82q70 0 123 53l21.5 21.5l21.5 21.5q12 10 23.5 24.5t27.5 26.5q2 4 8.5 6.5 t8.5 2.5q63 0 51 -70q-16 -74 -125 -154q-51 -35 -96 -54t-80 -19q-98 0 -117 90v71v27q-18 -23 -37.5 -46.5t-36.5 -45.5q-37 -47 -77.5 -71.5t-81.5 -24.5q-96 0 -129 61q-4 18 -10.5 42t-10.5 56q-10 -8 -24.5 -13t-24.5 -5q-63 0 -51 66zM153 764q12 59 82 131 q74 76 131 76q59 0 105 -84q16 -33 28.5 -49.5t24.5 -16.5q37 0 53 43q39 78 84 78q37 0 52.5 -19.5t9.5 -52.5q-4 -29 -26.5 -61.5t-57.5 -67.5q-72 -66 -127 -65q-68 0 -109 84q-31 63 -55 63q-37 0 -59 -49q-16 -41 -34 -61.5t-40 -20.5q-74 0 -62 72zM174 221 q-18 -102 21 -102q61 0 165 143q25 35 45.5 63.5t38.5 51.5q-16 0 -34.5 5t-34.5 11l2 -2q-18 4 -44 9.5t-20 7.5q-49 -4 -86 -64q-23 -29 -35 -60.5t-18 -62.5z" />
<glyph unicode="&#xe4;" horiz-adv-x="782" d="M-53 193q2 16 78 92l84 84l-5 -2q135 178 234 178q29 0 55.5 -10.5t48 -29t33.5 -41t12 -46.5q16 14 29 14q86 0 74 -72q-4 -29 -11.5 -44t-15.5 -35q-10 -23 -16 -42.5t-8 -29.5q-12 -82 24 -82q70 0 123 53l21.5 21.5l21.5 21.5q12 10 23.5 24.5t27.5 26.5q2 4 8.5 6.5 t8.5 2.5q63 0 51 -70q-16 -74 -125 -154q-51 -35 -96 -54t-80 -19q-98 0 -117 90v71v27q-18 -23 -37.5 -46.5t-36.5 -45.5q-37 -47 -77.5 -71.5t-81.5 -24.5q-96 0 -129 61q-4 18 -10.5 42t-10.5 56q-10 -8 -24.5 -13t-24.5 -5q-63 0 -51 66zM174 221q-18 -102 21 -102 q61 0 165 143q25 35 45.5 63.5t38.5 51.5q-16 0 -34.5 5t-34.5 11l2 -2q-18 4 -44 9.5t-20 7.5q-49 -4 -86 -64q-23 -29 -35 -60.5t-18 -62.5zM209 825q2 14 12.5 30.5t24.5 30t29.5 23t32.5 9.5q99 -1 81 -97q-8 -45 -33.5 -66.5t-78.5 -21.5q-31 0 -52.5 29t-15.5 63z M455 825q2 14 12.5 30.5t23.5 30t29.5 23t32.5 9.5q100 -1 82 -97q-14 -88 -108 -88q-35 0 -56.5 29t-15.5 63z" />
<glyph unicode="&#xe5;" horiz-adv-x="782" d="M-53 193q2 16 78 92l84 84l-5 -2q135 178 234 178q29 0 55.5 -10.5t48 -29t33.5 -41t12 -46.5q16 14 29 14q86 0 74 -72q-4 -29 -11.5 -44t-15.5 -35q-10 -23 -16 -42.5t-8 -29.5q-12 -82 24 -82q70 0 123 53l21.5 21.5l21.5 21.5q12 10 23.5 24.5t27.5 26.5q2 4 8.5 6.5 t8.5 2.5q63 0 51 -70q-16 -74 -125 -154q-51 -35 -96 -54t-80 -19q-98 0 -117 90v71v27q-18 -23 -37.5 -46.5t-36.5 -45.5q-37 -47 -77.5 -71.5t-81.5 -24.5q-96 0 -129 61q-4 18 -10.5 42t-10.5 56q-10 -8 -24.5 -13t-24.5 -5q-63 0 -51 66zM174 221q-18 -102 21 -102 q61 0 165 143q25 35 45.5 63.5t38.5 51.5q-16 0 -34.5 5t-34.5 11l2 -2q-18 4 -44 9.5t-20 7.5q-49 -4 -86 -64q-23 -29 -35 -60.5t-18 -62.5zM233 838q8 47 34 89t62.5 73.5t82 50t92.5 18.5q82 0 129.5 -56.5t31.5 -142.5q-8 -45 -32.5 -87t-61.5 -73.5t-82 -50t-92 -18.5 q-41 0 -74.5 15.5t-56 42t-32 62.5t-1.5 77zM366 844q-4 -31 14.5 -51.5t47.5 -20.5q37 0 68.5 27.5t37.5 64.5q4 31 -14 51.5t-47 20.5q-39 0 -69.5 -26.5t-37.5 -65.5z" />
<glyph unicode="&#xe6;" horiz-adv-x="972" d="M-61 188q4 12 23.5 34t60.5 61q37 35 61.5 56t28.5 30l-2 -2q141 178 241 178q53 0 78 -27q18 55 36.5 83t45.5 28q37 0 45 -80q57 66 123 65q76 0 120 -48t29 -124q-4 -29 -23.5 -60.5t-53.5 -76.5q-31 -39 -63 -64.5t-60 -35.5q-4 -4 -11.5 -7t-9.5 -1q-4 -29 27 -47.5 t65 -18.5q35 0 70 8t66 23q23 10 43 25.5t43 31.5q47 41 65 41q23 0 39 -30t12 -50q-12 -66 -151 -135q-121 -57 -189 -57q-53 0 -95 23.5t-77 66.5q-23 33 -38 67.5t-23 75.5q-20 -25 -39.5 -49.5t-38.5 -46.5q-117 -139 -207 -139q-98 0 -121 65q-8 23 -13 47.5t-11 46.5 q-23 -18 -41 -18q-63 0 -55 61zM168 174q-8 -55 14 -55q33 0 90 57h-2q31 29 52.5 53.5t35.5 44.5q10 14 19.5 43t19.5 76q-14 16 -30 17q-57 0 -125 -86h2q-63 -82 -76 -150zM578 299q31 14 69 61q52 52 58 93q6 39 -29 39q-20 0 -60 -58l2 4q-29 -57 -36 -104 q-2 -10 -3 -18.5t-1 -16.5z" />
<glyph unicode="&#xe7;" horiz-adv-x="573" d="M18 266q10 51 34 106.5t69 114.5q100 139 207 140q184 0 153 -187q-23 -117 -94 -116q-31 0 -56.5 23.5t-19.5 53.5q0 6 5.5 20.5t15.5 24.5v-2q2 4 5 8.5t5 8.5l4 8q6 35 -37 35q-51 0 -102 -86q-25 -39 -41 -75t-21 -71q-12 -68 15 -112q29 -51 88 -51q61 0 138 36.5 t167 114.5q4 2 9 5t9 3l17 4q57 -1 47 -71q-4 -10 -12.5 -22.5t-16.5 -22.5q-94 -86 -191.5 -132.5t-195.5 -46.5q-248 0 -201 289zM47 -467q2 20 64 72q43 35 45 61q6 37 -29 88q-49 61 -43 96q4 20 29 67.5t70 117.5q8 12 20 12h49q16 0 21.5 -11t-2.5 -24 q-23 -29 -34 -49t-15 -39q-2 -12 34 -71q27 -37 34 -71t1 -67q-4 -27 -25.5 -60.5t-56.5 -72.5q-33 -41 -66.5 -63.5t-56.5 -22.5q-45 0 -39 37z" />
<glyph unicode="&#xe8;" horiz-adv-x="548" d="M-53 172q0 -2 4 10v-2q0 2 2 3t2 3q2 0 2 2q0 -2 -2 -2q4 18 18 23q29 10 48.5 28.5t23.5 43.5q10 47 34.5 99t61.5 103q47 63 95.5 97t99.5 34q147 0 123 -143q-6 -37 -31 -76t-72 -86v2q-39 -37 -78.5 -63.5t-74.5 -42.5t-33 -12q-6 -33 23.5 -53.5t62.5 -20.5 q35 0 67.5 7t69.5 26q25 14 50.5 28.5t50.5 32.5q27 25 44 36t23 11q53 0 37 -84l-4 -16q-78 -72 -178 -119q-104 -53 -197 -53q-72 0 -129 69q-4 4 -11 19.5t-20 50.5q-25 -23 -37 -27t-28 -4q-59 0 -47 76zM-49 182q0 2 2 2t2 2q0 -4 -4 -4zM166 305q18 10 42.5 25.5 t49.5 38.5q33 31 52.5 56.5t23.5 41.5q4 23 -27 22q-27 0 -80 -75v2q-23 -33 -37 -60.5t-24 -50.5zM174 1049q10 53 80 53q68 0 101 -49l-2 2q2 -14 8 -33q4 -16 10 -34.5t16 -41.5l11 -35v2q18 -55 27.5 -91t9.5 -44q4 -4 1 -10t-6 -10l-8 -10q-6 -6 -14 -12.5t-12 -2.5 q-29 2 -131 141q-96 139 -91 175z" />
<glyph unicode="&#xe9;" horiz-adv-x="548" d="M-53 172q0 -2 4 10v-2q0 2 2 3t2 3q2 0 2 2q0 -2 -2 -2q4 18 18 23q29 10 48.5 28.5t23.5 43.5q10 47 34.5 99t61.5 103q47 63 95.5 97t99.5 34q147 0 123 -143q-6 -37 -31 -76t-72 -86v2q-39 -37 -78.5 -63.5t-74.5 -42.5t-33 -12q-6 -33 23.5 -53.5t62.5 -20.5 q35 0 67.5 7t69.5 26q25 14 50.5 28.5t50.5 32.5q27 25 44 36t23 11q53 0 37 -84l-4 -16q-78 -72 -178 -119q-104 -53 -197 -53q-72 0 -129 69q-4 4 -11 19.5t-20 50.5q-25 -23 -37 -27t-28 -4q-59 0 -47 76zM-49 182q0 2 2 2t2 2q0 -4 -4 -4zM166 305q18 10 42.5 25.5 t49.5 38.5q33 31 52.5 56.5t23.5 41.5q4 23 -27 22q-27 0 -80 -75v2q-23 -33 -37 -60.5t-24 -50.5zM204 769q1 5 5 9q4 8 23.5 42t58.5 91q16 23 29.5 42.5t23.5 33.5q16 27 27.5 43.5t16.5 22.5q45 49 116 49q70 0 60 -53q-6 -35 -152 -175h2q-143 -137 -178 -141 q-8 -4 -13 2t-10 13l-6 14q-4 2 -3 7z" />
<glyph unicode="&#xea;" horiz-adv-x="548" d="M-53 172q0 -2 4 10v-2q0 2 2 3t2 3q2 0 2 2q0 -2 -2 -2q4 18 18 23q29 10 48.5 28.5t23.5 43.5q10 47 34.5 99t61.5 103q47 63 95.5 97t99.5 34q147 0 123 -143q-6 -37 -31 -76t-72 -86v2q-39 -37 -78.5 -63.5t-74.5 -42.5t-33 -12q-6 -33 23.5 -53.5t62.5 -20.5 q35 0 67.5 7t69.5 26q25 14 50.5 28.5t50.5 32.5q27 25 44 36t23 11q53 0 37 -84l-4 -16q-78 -72 -178 -119q-104 -53 -197 -53q-72 0 -129 69q-4 4 -11 19.5t-20 50.5q-25 -23 -37 -27t-28 -4q-59 0 -47 76zM-49 182q0 2 2 2t2 2q0 -4 -4 -4zM69 758q2 27 74 67 q23 10 115 131q88 113 168 113q74 0 114 -86l35 -86q4 -10 5 -18.5t5 -18.5q0 -2 9.5 -11t21.5 -26q6 -6 11 -10t14 -12q53 -61 49 -88q-8 -49 -70 -49q-88 0 -135 69q-18 27 -49 127v-2q-14 49 -23 49q-18 0 -47 -43q-27 -41 -48 -68.5t-32 -37.5q-63 -68 -159 -68 q-23 0 -42.5 22.5t-15.5 45.5zM166 305q18 10 42.5 25.5t49.5 38.5q33 31 52.5 56.5t23.5 41.5q4 23 -27 22q-27 0 -80 -75v2q-23 -33 -37 -60.5t-24 -50.5z" />
<glyph unicode="&#xeb;" horiz-adv-x="548" d="M-53 172q0 -2 4 10v-2q0 2 2 3t2 3q2 0 2 2q0 -2 -2 -2q4 18 18 23q29 10 48.5 28.5t23.5 43.5q10 47 34.5 99t61.5 103q47 63 95.5 97t99.5 34q147 0 123 -143q-6 -37 -31 -76t-72 -86v2q-39 -37 -78.5 -63.5t-74.5 -42.5t-33 -12q-6 -33 23.5 -53.5t62.5 -20.5 q35 0 67.5 7t69.5 26q25 14 50.5 28.5t50.5 32.5q27 25 44 36t23 11q53 0 37 -84l-4 -16q-78 -72 -178 -119q-104 -53 -197 -53q-72 0 -129 69q-4 4 -11 19.5t-20 50.5q-25 -23 -37 -27t-28 -4q-59 0 -47 76zM-49 182q0 2 2 2t2 2q0 -4 -4 -4zM166 305q18 10 42.5 25.5 t49.5 38.5q33 31 52.5 56.5t23.5 41.5q4 23 -27 22q-27 0 -80 -75v2q-23 -33 -37 -60.5t-24 -50.5zM178 825q2 14 12.5 30.5t24.5 30t29.5 23t32.5 9.5q99 -1 81 -97q-8 -45 -33.5 -66.5t-78.5 -21.5q-31 0 -52.5 29t-15.5 63zM424 825q2 14 12.5 30.5t23.5 30t29.5 23 t32.5 9.5q100 -1 82 -97q-14 -88 -108 -88q-35 0 -56.5 29t-15.5 63z" />
<glyph unicode="&#xec;" horiz-adv-x="483" d="M-39 186q6 29 98 105q25 20 49.5 44.5t41.5 47.5q2 2 17 27.5t48 81.5q20 35 47 34q82 0 70 -71q-4 -23 -13.5 -53.5t-25.5 -73.5q-12 -41 -21.5 -70t-11.5 -45q-16 -86 45 -86q55 0 119 82q47 53 69.5 79.5t34.5 26.5q68 1 54 -69q-8 -63 -125 -162q-119 -96 -183 -96 q-164 0 -139 221q-4 -6 -13 -14.5t-20 -18.5q-59 -66 -96 -65q-57 0 -45 75zM139 1037q10 53 80 53q68 0 101 -49l-2 2q2 -14 8 -33q4 -16 10 -34.5t16 -41.5l11 -35v2q18 -55 27.5 -91t9.5 -44q4 -4 1 -10t-6 -10l-8 -10q-6 -6 -14 -12.5t-12 -2.5q-29 2 -131 141 q-96 139 -91 175z" />
<glyph unicode="&#xed;" horiz-adv-x="491" d="M-39 186q6 29 98 105q25 20 49.5 44.5t41.5 47.5q2 2 17 27.5t48 81.5q20 35 47 34q82 0 70 -71q-4 -23 -13.5 -53.5t-25.5 -73.5q-12 -41 -21.5 -70t-11.5 -45q-16 -86 45 -86q55 0 119 82q47 53 69.5 79.5t34.5 26.5q68 1 54 -69q-8 -63 -125 -162q-119 -96 -183 -96 q-164 0 -139 221q-4 -6 -13 -14.5t-20 -18.5q-59 -66 -96 -65q-57 0 -45 75zM222 769q1 5 5 9q4 8 23.5 42t58.5 91q16 23 29.5 42.5t23.5 33.5q16 27 27.5 43.5t16.5 22.5q45 49 116 49q70 0 60 -53q-6 -35 -152 -175h2q-143 -137 -178 -141q-8 -4 -13 2t-10 13l-6 14 q-4 2 -3 7z" />
<glyph unicode="&#xee;" horiz-adv-x="466" d="M-59 186q6 29 98 105q25 20 49.5 44.5t41.5 47.5q2 2 17 27.5t48 81.5q20 35 47 34q82 0 70 -71q-4 -23 -13.5 -53.5t-25.5 -73.5q-12 -41 -21.5 -70t-11.5 -45q-16 -86 45 -86q55 0 119 82q47 53 69.5 79.5t34.5 26.5q68 1 54 -69q-8 -63 -125 -162q-119 -96 -183 -96 q-164 0 -139 221q-4 -6 -13 -14.5t-20 -18.5q-59 -66 -96 -65q-57 0 -45 75zM-23 758q2 27 74 67q23 10 115 131q88 113 168 113q74 0 114 -86l35 -86q4 -10 5 -18.5t5 -18.5q0 -2 9.5 -11t21.5 -26q6 -6 11 -10t14 -12q53 -61 49 -88q-8 -49 -70 -49q-88 0 -135 69 q-18 27 -49 127v-2q-14 49 -23 49q-18 0 -47 -43q-27 -41 -48 -68.5t-32 -37.5q-63 -68 -159 -68q-23 0 -42.5 22.5t-15.5 45.5z" />
<glyph unicode="&#xef;" horiz-adv-x="483" d="M-39 186q6 29 98 105q25 20 49.5 44.5t41.5 47.5q2 2 17 27.5t48 81.5q20 35 47 34q82 0 70 -71q-4 -23 -13.5 -53.5t-25.5 -73.5q-12 -41 -21.5 -70t-11.5 -45q-16 -86 45 -86q55 0 119 82q47 53 69.5 79.5t34.5 26.5q68 1 54 -69q-8 -63 -125 -162q-119 -96 -183 -96 q-164 0 -139 221q-4 -6 -13 -14.5t-20 -18.5q-59 -66 -96 -65q-57 0 -45 75zM119 825q2 14 12.5 30.5t24.5 30t29.5 23t32.5 9.5q99 -1 81 -97q-8 -45 -33.5 -66.5t-78.5 -21.5q-31 0 -52.5 29t-15.5 63zM365 825q2 14 12.5 30.5t23.5 30t29.5 23t32.5 9.5q100 -1 82 -97 q-14 -88 -108 -88q-35 0 -56.5 29t-15.5 63z" />
<glyph unicode="&#xf0;" horiz-adv-x="778" d="M176 172q-27 147 10 360q10 63 36 132t63 133q100 174 223 174q47 0 84 -31t70 -90q2 47 -2.5 101.5t-16.5 117.5q-18 125 -59 238l-2 -2q-12 -12 -27.5 -25.5t-30.5 -24.5q-29 -18 -53.5 -33.5t-50.5 -21.5q-16 -8 -25 6q-10 27 -4 76q4 25 21.5 47.5t54.5 48.5 q12 6 24.5 14.5t22.5 18.5q10 4 4 0t0 2q-10 16 -24.5 35.5t-26.5 38.5q-57 76 -51 112q4 23 16 33t27 10q37 0 76.5 -38.5t93.5 -116.5q16 10 25.5 19.5t23.5 19.5q23 16 41 28.5t43 20.5q25 10 24 -12q8 -35 2 -74q-4 -23 -27.5 -49.5t-64.5 -55.5q33 -82 58.5 -174 t38.5 -192q16 -106 13.5 -213t-18.5 -205q-16 -100 -45.5 -198.5t-66.5 -184.5q-59 -133 -129 -203.5t-150 -70.5q-180 0 -221 229zM291 347q-2 -64 4 -126q12 -72 42 -115t71 -43q68 0 129 138q23 53 39 110.5t26 118.5q25 137 8 248q-20 143 -121 143q-31 0 -62.5 -34.5 t-57.5 -94.5q-20 -47 -37 -100t-27 -113q-12 -68 -14 -132z" />
<glyph unicode="&#xf1;" horiz-adv-x="749" d="M-39 182q4 29 41 66l-2 -2q104 129 168 217l-2 -4q12 18 32.5 47t45.5 63v-2q4 6 14 14.5t27 12.5q33 -4 51 -42t12 -75q-4 -25 -14 -59.5t-23 -77.5q-10 -27 -15 -46.5t-9 -37.5q12 18 29.5 40.5t39.5 57.5q106 164 176 164q35 0 62 -43t39 -123q12 -59 23.5 -96 t21.5 -37q14 0 41 19q25 16 39 24t22 8q51 1 39 -77q-4 -25 -21.5 -44.5t-42 -33t-51 -20.5t-51.5 -7q-39 0 -64.5 21.5t-45.5 60.5q-6 12 -14.5 42t-18.5 87l-10 55q-16 0 -127 -168q-123 -195 -178 -194q-74 0 -58 82q2 12 7.5 36.5t13.5 47.5q4 23 9 43t7 35q8 37 0 36 q-6 0 -14 -13t-41 -54q-33 -45 -60.5 -68.5t-40.5 -23.5q-23 0 -42 21.5t-15 47.5zM210 764q12 59 82 131q74 76 131 76q59 0 105 -84q16 -33 28.5 -49.5t24.5 -16.5q37 0 53 43q39 78 84 78q37 0 52.5 -19.5t9.5 -52.5q-4 -29 -26.5 -61.5t-57.5 -67.5q-72 -66 -127 -65 q-68 0 -109 84q-31 63 -55 63q-37 0 -59 -49q-16 -41 -34 -61.5t-40 -20.5q-74 0 -62 72z" />
<glyph unicode="&#xf2;" horiz-adv-x="575" d="M-41 172q2 10 17.5 28.5t39.5 43.5q23 18 34 36.5t16 34.5q102 272 243 273q78 0 66 -62q6 2 10 3t14 1q39 0 93 -34q10 4 26.5 14t36.5 27q2 2 8 2h45q-16 4 -12 25.5t25 21.5q59 0 47 -70q-6 -35 -32 -63.5t-75 -51.5q25 -53 8 -147q-18 -102 -94 -195 q-92 -104 -192 -104q-49 0 -89 20.5t-75 57.5q-25 23 -39 53.5t-19 58.5q-39 -27 -55 -26q-25 0 -38 12t-9 41zM195 236.5q2 -37.5 12 -72.5q14 -33 32.5 -54.5t47.5 -21.5q23 0 48 15.5t46 33.5q20 23 32.5 51.5t16.5 57.5q14 86 2 106q-6 -6 -20 -6q-45 0 -69.5 30 t-16.5 77q2 8 2 14t4 12q-8 -4 -15 -8q-23 -10 -38 -23.5t-31 -29.5q-18 -23 -31.5 -49.5t-17.5 -59.5q-6 -35 -4 -72.5zM247 1049q10 53 80 53q68 0 101 -49l-2 2q2 -14 8 -33q4 -16 10 -34.5t16 -41.5l11 -35v2q18 -55 27.5 -91t9.5 -44q4 -4 1 -10t-6 -10l-8 -10 q-6 -6 -14 -12.5t-12 -2.5q-29 2 -131 141q-96 139 -91 175z" />
<glyph unicode="&#xf3;" horiz-adv-x="575" d="M-41 172q2 10 17.5 28.5t39.5 43.5q23 18 34 36.5t16 34.5q102 272 243 273q78 0 66 -62q6 2 10 3t14 1q39 0 93 -34q10 4 26.5 14t36.5 27q2 2 8 2h45q-16 4 -12 25.5t25 21.5q59 0 47 -70q-6 -35 -32 -63.5t-75 -51.5q25 -53 8 -147q-18 -102 -94 -195 q-92 -104 -192 -104q-49 0 -89 20.5t-75 57.5q-25 23 -39 53.5t-19 58.5q-39 -27 -55 -26q-25 0 -38 12t-9 41zM195 236.5q2 -37.5 12 -72.5q14 -33 32.5 -54.5t47.5 -21.5q23 0 48 15.5t46 33.5q20 23 32.5 51.5t16.5 57.5q14 86 2 106q-6 -6 -20 -6q-45 0 -69.5 30 t-16.5 77q2 8 2 14t4 12q-8 -4 -15 -8q-23 -10 -38 -23.5t-31 -29.5q-18 -23 -31.5 -49.5t-17.5 -59.5q-6 -35 -4 -72.5zM331 769q1 5 5 9q4 8 23.5 42t58.5 91q16 23 29.5 42.5t23.5 33.5q16 27 27.5 43.5t16.5 22.5q45 49 116 49q70 0 60 -53q-6 -35 -152 -175h2 q-143 -137 -178 -141q-8 -4 -13 2t-10 13l-6 14q-4 2 -3 7z" />
<glyph unicode="&#xf4;" horiz-adv-x="575" d="M-41 172q2 10 17.5 28.5t39.5 43.5q23 18 34 36.5t16 34.5q102 272 243 273q78 0 66 -62q6 2 10 3t14 1q39 0 93 -34q10 4 26.5 14t36.5 27q2 2 8 2h45q-16 4 -12 25.5t25 21.5q59 0 47 -70q-6 -35 -32 -63.5t-75 -51.5q25 -53 8 -147q-18 -102 -94 -195 q-92 -104 -192 -104q-49 0 -89 20.5t-75 57.5q-25 23 -39 53.5t-19 58.5q-39 -27 -55 -26q-25 0 -38 12t-9 41zM94 758q2 27 74 67q23 10 115 131q88 113 168 113q74 0 114 -86l35 -86q4 -10 5 -18.5t5 -18.5q0 -2 9.5 -11t21.5 -26q6 -6 11 -10t14 -12q53 -61 49 -88 q-8 -49 -70 -49q-88 0 -135 69q-18 27 -49 127v-2q-14 49 -23 49q-18 0 -47 -43q-27 -41 -48 -68.5t-32 -37.5q-63 -68 -159 -68q-23 0 -42.5 22.5t-15.5 45.5zM195 236.5q2 -37.5 12 -72.5q14 -33 32.5 -54.5t47.5 -21.5q23 0 48 15.5t46 33.5q20 23 32.5 51.5t16.5 57.5 q14 86 2 106q-6 -6 -20 -6q-45 0 -69.5 30t-16.5 77q2 8 2 14t4 12q-8 -4 -15 -8q-23 -10 -38 -23.5t-31 -29.5q-18 -23 -31.5 -49.5t-17.5 -59.5q-6 -35 -4 -72.5z" />
<glyph unicode="&#xf5;" horiz-adv-x="575" d="M-41 172q2 10 17.5 28.5t39.5 43.5q23 18 34 36.5t16 34.5q102 272 243 273q78 0 66 -62q6 2 10 3t14 1q39 0 93 -34q10 4 26.5 14t36.5 27q2 2 8 2h45q-16 4 -12 25.5t25 21.5q59 0 47 -70q-6 -35 -32 -63.5t-75 -51.5q25 -53 8 -147q-18 -102 -94 -195 q-92 -104 -192 -104q-49 0 -89 20.5t-75 57.5q-25 23 -39 53.5t-19 58.5q-39 -27 -55 -26q-25 0 -38 12t-9 41zM133 764q12 59 82 131q74 76 131 76q59 0 105 -84q16 -33 28.5 -49.5t24.5 -16.5q37 0 53 43q39 78 84 78q37 0 52.5 -19.5t9.5 -52.5q-4 -29 -26.5 -61.5 t-57.5 -67.5q-72 -66 -127 -65q-68 0 -109 84q-31 63 -55 63q-37 0 -59 -49q-16 -41 -34 -61.5t-40 -20.5q-74 0 -62 72zM195 236.5q2 -37.5 12 -72.5q14 -33 32.5 -54.5t47.5 -21.5q23 0 48 15.5t46 33.5q20 23 32.5 51.5t16.5 57.5q14 86 2 106q-6 -6 -20 -6 q-45 0 -69.5 30t-16.5 77q2 8 2 14t4 12q-8 -4 -15 -8q-23 -10 -38 -23.5t-31 -29.5q-18 -23 -31.5 -49.5t-17.5 -59.5q-6 -35 -4 -72.5z" />
<glyph unicode="&#xf6;" horiz-adv-x="575" d="M-41 172q2 10 17.5 28.5t39.5 43.5q23 18 34 36.5t16 34.5q102 272 243 273q78 0 66 -62q6 2 10 3t14 1q39 0 93 -34q10 4 26.5 14t36.5 27q2 2 8 2h45q-16 4 -12 25.5t25 21.5q59 0 47 -70q-6 -35 -32 -63.5t-75 -51.5q25 -53 8 -147q-18 -102 -94 -195 q-92 -104 -192 -104q-49 0 -89 20.5t-75 57.5q-25 23 -39 53.5t-19 58.5q-39 -27 -55 -26q-25 0 -38 12t-9 41zM164 825q2 14 12.5 30.5t24.5 30t29.5 23t32.5 9.5q99 -1 81 -97q-8 -45 -33.5 -66.5t-78.5 -21.5q-31 0 -52.5 29t-15.5 63zM195 236.5q2 -37.5 12 -72.5 q14 -33 32.5 -54.5t47.5 -21.5q23 0 48 15.5t46 33.5q20 23 32.5 51.5t16.5 57.5q14 86 2 106q-6 -6 -20 -6q-45 0 -69.5 30t-16.5 77q2 8 2 14t4 12q-8 -4 -15 -8q-23 -10 -38 -23.5t-31 -29.5q-18 -23 -31.5 -49.5t-17.5 -59.5q-6 -35 -4 -72.5zM410 825q2 14 12.5 30.5 t23.5 30t29.5 23t32.5 9.5q100 -1 82 -97q-14 -88 -108 -88q-35 0 -56.5 29t-15.5 63z" />
<glyph unicode="&#xf7;" horiz-adv-x="874" d="M131 281q2 12 11.5 29.5t21.5 31.5t25.5 24.5t25.5 10.5h541q16 0 24 -10.5t6 -20.5q-2 -14 -11 -31.5t-21.5 -32t-27.5 -23.5t-30 -9h-538q-18 0 -23.5 10t-3.5 21zM307 90q20 117 123 117q45 0 69.5 -36t16.5 -81q-8 -43 -44 -79t-81 -36q-47 0 -69.5 36t-14.5 79z M385 537q8 41 42 75.5t79 34.5q47 0 71.5 -34.5t16.5 -75.5q-8 -45 -44 -81t-81 -36q-47 0 -69.5 34.5t-14.5 82.5z" />
<glyph unicode="&#xf8;" horiz-adv-x="823" d="M104 170q2 23 52 78q39 45 45 71q6 41 21.5 84t35.5 78q33 51 72 79t86 28q16 0 27.5 -4t21.5 -9q23 111 33 174.5t14 81.5q8 41 23.5 58.5t46.5 17.5q84 0 53 -170q-6 -35 -17.5 -86t-33.5 -139q6 -4 11 -6t11 -6q23 6 60 37q55 49 71 49q12 0 28.5 -25.5t12.5 -48.5 q-12 -66 -96 -109q20 -33 24.5 -71.5t-6.5 -85.5q-12 -82 -88 -172h2q-29 -35 -64.5 -64.5t-70.5 -46.5q-2 -10 -4 -29.5t-6 -48.5v2q-4 -29 -7 -54.5t-7 -43.5q-29 -158 -74 -158q-57 0 -76 76q-2 8 0 37t10 76q6 35 13.5 66.5t17.5 84.5q-55 6 -86 45q-12 16 -20.5 35 t-14.5 47q-4 23 -7 36t-7 18q-31 -33 -55 -33q-8 0 -17.5 5t-17.5 13t-13.5 17.5t-3.5 15.5zM328 334q-10 -61 10 -137q8 -27 17.5 -47.5t19.5 -34.5q20 109 37.5 200t33.5 164q-4 -2 -14 -8q-39 -20 -59 -45q-37 -39 -45 -92zM504 121q18 14 37 47q16 29 26.5 52t14.5 50 q12 63 -9 95q-4 -8 -9 -9.5t-17 -3.5q-10 -51 -17.5 -88t-11.5 -57z" />
<glyph unicode="&#xf9;" horiz-adv-x="802" d="M-2 395q6 59 104 101q72 33 127 32q86 0 68 -98q-4 -23 -13.5 -50.5t-25.5 -64.5q-16 -35 -25.5 -59.5t-11.5 -38.5q-12 -66 10 -65q41 0 148 172q123 205 145 204q12 0 25.5 -7t26 -19.5t19.5 -26.5t5 -29q-4 -25 -7 -37t-7 -21t-7.5 -17.5t-7.5 -22.5q-20 -53 -24 -86 q-10 -53 -4 -98q6 -23 15 -36t24 -13q18 0 51 19.5t63 45.5q41 37 72 58.5t41 21.5q53 0 45 -59q-12 -61 -133 -144q-55 -37 -99 -57t-73 -20q-37 0 -62.5 22.5t-44.5 63.5q-8 27 -12 59.5t-4 60.5q-14 -18 -28.5 -34.5t-30.5 -32.5q-94 -102 -168 -103q-129 0 -97 205 q4 18 13.5 45t21.5 53l-2 -2q10 27 19.5 50.5t13.5 33.5q-10 -4 -21.5 -10t-23.5 -18q-53 -43 -82 -43q-55 0 -43 65zM301 1049q10 53 80 53q68 0 101 -49l-2 2q2 -14 8 -33q4 -16 10 -34.5t16 -41.5l11 -35v2q18 -55 27.5 -91t9.5 -44q4 -4 1 -10t-6 -10l-8 -10 q-6 -6 -14 -12.5t-12 -2.5q-29 2 -131 141q-96 139 -91 175z" />
<glyph unicode="&#xfa;" horiz-adv-x="802" d="M-2 395q6 59 104 101q72 33 127 32q86 0 68 -98q-4 -23 -13.5 -50.5t-25.5 -64.5q-16 -35 -25.5 -59.5t-11.5 -38.5q-12 -66 10 -65q41 0 148 172q123 205 145 204q12 0 25.5 -7t26 -19.5t19.5 -26.5t5 -29q-4 -25 -7 -37t-7 -21t-7.5 -17.5t-7.5 -22.5q-20 -53 -24 -86 q-10 -53 -4 -98q6 -23 15 -36t24 -13q18 0 51 19.5t63 45.5q41 37 72 58.5t41 21.5q53 0 45 -59q-12 -61 -133 -144q-55 -37 -99 -57t-73 -20q-37 0 -62.5 22.5t-44.5 63.5q-8 27 -12 59.5t-4 60.5q-14 -18 -28.5 -34.5t-30.5 -32.5q-94 -102 -168 -103q-129 0 -97 205 q4 18 13.5 45t21.5 53l-2 -2q10 27 19.5 50.5t13.5 33.5q-10 -4 -21.5 -10t-23.5 -18q-53 -43 -82 -43q-55 0 -43 65zM322 769q1 5 5 9q4 8 23.5 42t58.5 91q16 23 29.5 42.5t23.5 33.5q16 27 27.5 43.5t16.5 22.5q45 49 116 49q70 0 60 -53q-6 -35 -152 -175h2 q-143 -137 -178 -141q-8 -4 -13 2t-10 13l-6 14q-4 2 -3 7z" />
<glyph unicode="&#xfb;" horiz-adv-x="802" d="M-2 395q6 59 104 101q72 33 127 32q86 0 68 -98q-4 -23 -13.5 -50.5t-25.5 -64.5q-16 -35 -25.5 -59.5t-11.5 -38.5q-12 -66 10 -65q41 0 148 172q123 205 145 204q12 0 25.5 -7t26 -19.5t19.5 -26.5t5 -29q-4 -25 -7 -37t-7 -21t-7.5 -17.5t-7.5 -22.5q-20 -53 -24 -86 q-10 -53 -4 -98q6 -23 15 -36t24 -13q18 0 51 19.5t63 45.5q41 37 72 58.5t41 21.5q53 0 45 -59q-12 -61 -133 -144q-55 -37 -99 -57t-73 -20q-37 0 -62.5 22.5t-44.5 63.5q-8 27 -12 59.5t-4 60.5q-14 -18 -28.5 -34.5t-30.5 -32.5q-94 -102 -168 -103q-129 0 -97 205 q4 18 13.5 45t21.5 53l-2 -2q10 27 19.5 50.5t13.5 33.5q-10 -4 -21.5 -10t-23.5 -18q-53 -43 -82 -43q-55 0 -43 65zM106 758q2 27 74 67q23 10 115 131q88 113 168 113q74 0 114 -86l35 -86q4 -10 5 -18.5t5 -18.5q0 -2 9.5 -11t21.5 -26q6 -6 11 -10t14 -12 q53 -61 49 -88q-8 -49 -70 -49q-88 0 -135 69q-18 27 -49 127v-2q-14 49 -23 49q-18 0 -47 -43q-27 -41 -48 -68.5t-32 -37.5q-63 -68 -159 -68q-23 0 -42.5 22.5t-15.5 45.5z" />
<glyph unicode="&#xfc;" horiz-adv-x="802" d="M-2 395q6 59 104 101q72 33 127 32q86 0 68 -98q-4 -23 -13.5 -50.5t-25.5 -64.5q-16 -35 -25.5 -59.5t-11.5 -38.5q-12 -66 10 -65q41 0 148 172q123 205 145 204q12 0 25.5 -7t26 -19.5t19.5 -26.5t5 -29q-4 -25 -7 -37t-7 -21t-7.5 -17.5t-7.5 -22.5q-20 -53 -24 -86 q-10 -53 -4 -98q6 -23 15 -36t24 -13q18 0 51 19.5t63 45.5q41 37 72 58.5t41 21.5q53 0 45 -59q-12 -61 -133 -144q-55 -37 -99 -57t-73 -20q-37 0 -62.5 22.5t-44.5 63.5q-8 27 -12 59.5t-4 60.5q-14 -18 -28.5 -34.5t-30.5 -32.5q-94 -102 -168 -103q-129 0 -97 205 q4 18 13.5 45t21.5 53l-2 -2q10 27 19.5 50.5t13.5 33.5q-10 -4 -21.5 -10t-23.5 -18q-53 -43 -82 -43q-55 0 -43 65zM239 825q2 14 12.5 30.5t24.5 30t29.5 23t32.5 9.5q99 -1 81 -97q-8 -45 -33.5 -66.5t-78.5 -21.5q-31 0 -52.5 29t-15.5 63zM485 825q2 14 12.5 30.5 t23.5 30t29.5 23t32.5 9.5q100 -1 82 -97q-14 -88 -108 -88q-35 0 -56.5 29t-15.5 63z" />
<glyph unicode="&#xfd;" horiz-adv-x="808" d="M35 180l117 123l2 14q4 35 15 68t28 70q25 53 50 79.5t60 26.5q76 0 66 -65q-10 -45 -39 -111t-33 -88q-10 -51 2 -84q10 -39 35 -39q33 0 115 100q72 92 96 154q47 121 90 121q98 0 55 -250q-4 -23 -11 -55.5t-13 -55.5l-2 -18q-12 -70 8 -70h10q8 0 19 2q12 4 21 5.5 t22 1.5q123 0 157 -111l2 2q4 -10 5 -22.5t-1 -22.5q-6 -37 -49 -37q-41 0 -88 35q-45 27 -69 27q-63 0 -72 -56q-2 -10 -3 -20t-3 -27q-2 -12 -3 -26.5t-3 -22.5q-18 -104 -47 -191.5t-72 -160.5q-117 -213 -297 -213q-113 0 -156 123q-33 98 -14 213q35 180 182 290 q35 20 75 43t75 43q39 23 75.5 43.5t73.5 40.5h-2q16 10 45 170q0 4 1 2t1 -4v2v15q-4 -8 -7 -11.5t-9 -13.5q-25 -35 -51.5 -67.5t-47.5 -51.5q-72 -66 -149 -65q-70 0 -98 47q-6 10 -12.5 30.5t-8.5 45.5q-8 -12 -8 -13q-37 -43 -82 -43q-61 0 -53 78zM162 -416 q-8 -53 12 -121q29 -66 68 -65q170 0 254 481l8 39q-35 0 -83 -32.5t-114 -94.5q-133 -133 -145 -207zM425 736q1 5 5 9q4 8 23.5 42t58.5 91q16 23 29.5 42.5t23.5 33.5q16 27 27.5 43.5t16.5 22.5q45 49 116 49q70 0 60 -53q-6 -35 -152 -175h2q-143 -137 -178 -141 q-8 -4 -13 2t-10 13l-6 14q-4 2 -3 7z" />
<glyph unicode="&#xfe;" horiz-adv-x="751" d="M47 -620.5q-2 24.5 2 42.5q6 51 35 160q23 100 33 156q8 41 18 100.5t27 134.5q4 23 12 60t12 63q4 31 11.5 61.5t11.5 59.5q14 76 24.5 134.5t18.5 103.5q49 287 72.5 443.5t19.5 197.5q-4 -8 -13 -19.5t-26 -40.5q-59 -102 -92 -102q-29 0 -49.5 24.5t-16.5 53.5 q2 18 25 55q20 29 48 76t67 108l-2 -2q2 2 6 10.5t8 14.5q6 16 20.5 44t40.5 73q18 27 50 26q121 0 90 -172q-2 -6 -5 -24.5t-8 -32.5l-8 -45l-121 -729q23 41 45.5 73.5t42.5 55.5q31 43 67 63.5t71 20.5q49 0 83.5 -28t57.5 -75q14 -41 20 -87t-2 -93 q-10 -53 -34.5 -108.5t-61.5 -112.5q-98 -147 -201 -148q-39 0 -81 13q-16 4 -33 6t-27 4q-6 -37 -13 -90t-16 -125q-8 -76 -16 -132.5t-14 -94.5q-49 -270 -133 -271q-18 0 -32.5 14.5t-23 35t-10.5 45zM350 158q-2 -10 6.5 -18.5t21.5 -14.5t29.5 -10t28.5 -4q61 0 113 77 v-2q41 66 57 150q23 133 -61 133q-16 0 -105 -135q-41 -66 -63.5 -110t-26.5 -66z" />
<glyph unicode="&#xff;" horiz-adv-x="808" d="M35 180l117 123l2 14q4 35 15 68t28 70q25 53 50 79.5t60 26.5q76 0 66 -65q-10 -45 -39 -111t-33 -88q-10 -51 2 -84q10 -39 35 -39q33 0 115 100q72 92 96 154q47 121 90 121q98 0 55 -250q-4 -23 -11 -55.5t-13 -55.5l-2 -18q-12 -70 8 -70h10q8 0 19 2q12 4 21 5.5 t22 1.5q123 0 157 -111l2 2q4 -10 5 -22.5t-1 -22.5q-6 -37 -49 -37q-41 0 -88 35q-45 27 -69 27q-63 0 -72 -56q-2 -10 -3 -20t-3 -27q-2 -12 -3 -26.5t-3 -22.5q-18 -104 -47 -191.5t-72 -160.5q-117 -213 -297 -213q-113 0 -156 123q-33 98 -14 213q35 180 182 290 q35 20 75 43t75 43q39 23 75.5 43.5t73.5 40.5h-2q16 10 45 170q0 4 1 2t1 -4v2v15q-4 -8 -7 -11.5t-9 -13.5q-25 -35 -51.5 -67.5t-47.5 -51.5q-72 -66 -149 -65q-70 0 -98 47q-6 10 -12.5 30.5t-8.5 45.5q-8 -12 -8 -13q-37 -43 -82 -43q-61 0 -53 78zM162 -416 q-8 -53 12 -121q29 -66 68 -65q170 0 254 481l8 39q-35 0 -83 -32.5t-114 -94.5q-133 -133 -145 -207zM282 825q2 14 12.5 30.5t24.5 30t29.5 23t32.5 9.5q99 -1 81 -97q-8 -45 -33.5 -66.5t-78.5 -21.5q-31 0 -52.5 29t-15.5 63zM528 825q2 14 12.5 30.5t23.5 30t29.5 23 t32.5 9.5q100 -1 82 -97q-14 -88 -108 -88q-35 0 -56.5 29t-15.5 63z" />
<glyph unicode="&#x152;" horiz-adv-x="1716" d="M167 237.5q-13 135.5 13 286.5q49 281 228 508q98 133 172 133q47 0 61 -37q78 150 157 230t158 80q195 0 228 -365q12 33 28 70q16 53 39 100t45 86q27 37 45 37q10 0 21.5 -25.5t21.5 -72.5q266 63 385 63q29 0 57.5 -11t50 -30.5t34 -46t6.5 -55.5q-12 -80 -125 -80 q-31 0 -47 13.5t-25 37.5q-10 20 -86 21q-143 0 -241 -35q-20 -8 -36 -24.5t-30 -47.5q-27 -57 -61.5 -149.5t-75.5 -218.5q-41 -125 -65.5 -216.5t-34.5 -144.5q57 0 170 33q131 29 190 29q154 0 139 -82q-4 -18 -21.5 -35t-49.5 -39q-53 -37 -97 -39l-18 8q-4 2 -8 9.5 t-2 13.5l6 20h-13q-86 0 -163.5 -13t-143.5 -36q-27 -6 -35 -51q-16 -66 -28 -128.5t-23 -121.5q-25 -135 0 -135q43 0 92 18q14 6 27.5 12.5t26.5 10.5q16 6 26.5 11t24.5 11q242 96 534 97q141 0 127 -84q-4 -29 -35.5 -53.5t-84.5 -45.5q-88 -35 -144 -35q-10 0 -18 6.5 t-19 14.5q-10 10 -26.5 19.5t-40.5 9.5q-53 0 -130 -19.5t-188 -58.5q-111 -45 -169 -65.5t-68 -20.5q-20 0 -34.5 29.5t-25.5 78.5q-10 41 -10 70q-53 -51 -108.5 -79t-114.5 -28q-276 0 -404 299q-51 127 -64 262.5zM270.5 334q1.5 -78 18.5 -152q31 -135 117 -241 q104 -133 215 -134q78 0 157 70q41 35 65.5 74t35.5 84q4 14 9 40.5t11 63.5q2 12 8 17q-4 0 -6 2l-2 -2q-16 -10 -31.5 -17.5t-25.5 -7.5q-39 0 -64 53q-27 53 -20 84q10 49 121 49q53 0 71 39q57 123 107 410q16 84 19 168t-7 162q-25 215 -131 215q-96 0 -238 -326 q-113 -272 -143 -444q-4 -27 -6 -58.5t-4 -72.5l2 4q-4 -18 -3 -32.5t3 -25.5q4 10 14 18.5t27 8.5q57 0 43 -86q-8 -45 -41 -79t-78 -34q-80 0 -88 160q-2 45 1 95.5t13 103.5q16 92 46 191.5t71 207.5q-12 0 -27 8h2q-2 2 -4 2t-4 2q-2 0 -4 2q-57 0 -143 -192 q-76 -168 -94 -270q-14 -82 -12.5 -160z" />
<glyph unicode="&#x153;" horiz-adv-x="987" d="M-8 172q2 20 59 74q23 27 36 41t17 24q4 8 8.5 15.5t6.5 13.5h-2q23 47 43 83t30 56q72 109 170 109q49 0 66 -27h2q47 0 82 -18.5t63 -63.5q92 135 195 135q152 0 127 -147q-6 -35 -30.5 -73t-65.5 -83q-84 -80 -150 -106q-10 -4 -19 -8t-9 -2q-12 -63 77 -64 q92 0 193 62q29 20 104 20q-16 4 -12 25.5t23 21.5q55 0 43 -72q-8 -66 -168 -141q-141 -59 -205 -59q-72 0 -116 26.5t-64 73.5q-41 -49 -90.5 -78.5t-104.5 -29.5q-133 0 -178 98q-8 27 -12.5 37t-14.5 32q-27 -20 -39 -24t-22 -4q-51 0 -43 53zM229 262q-27 -150 80 -149 q61 0 117 63q56 59 66 129q12 59 -23 80q-10 4 -28.5 9t-53.5 14q-39 14 -39 43q-47 -35 -77.5 -82t-41.5 -107zM612 305q16 4 38 19.5t44 42.5q70 59 76 102q4 23 -18 23q-14 0 -39 -21.5t-43 -50.5q-23 -31 -38.5 -61.5t-19.5 -53.5z" />
<glyph unicode="&#x178;" horiz-adv-x="1425" d="M6 -462q-2 69 10 147q10 61 32 124.5t50 129.5q96 186 197 186q94 0 63 -174q-14 -90 -59 -90q-20 0 -30.5 11t-16.5 26q-4 6 0 6q-25 -2 -59 -80q-31 -66 -43 -131q-18 -111 12 -187q14 -47 47 -67.5t78 -20.5q59 0 143 76t184 215q92 135 149.5 244.5t70.5 181.5 q10 66 -8.5 198t-65.5 341q-98 420 -168 420q-20 0 -72 -64q-78 -84 -121 -84q-47 0 -37 64q12 72 89 184q41 66 79.5 101.5t71.5 35.5q49 0 101.5 -80t99.5 -217q29 -86 55.5 -187.5t42.5 -193.5q14 -59 21.5 -131.5t11.5 -156.5l2 2q0 -20 2 -25q10 23 41 94.5t72 175.5 q59 137 119.5 278.5t119.5 276.5q25 57 43.5 97.5t30.5 60.5q55 74 147 74q55 0 84 -68q10 -23 12.5 -48t-1.5 -52q-6 -27 -31 -37h4q-16 -6 -41 -2q-10 2 -29 2h-41q-18 0 -79.5 -118t-161.5 -359q-166 -385 -271.5 -617.5t-148.5 -312.5q-283 -512 -557 -512 q-156 0 -215 139q-27 55 -29 124zM917 1411q2 14 12.5 30.5t24.5 30t29.5 23t32.5 9.5q99 -1 81 -97q-8 -45 -33.5 -66.5t-78.5 -21.5q-31 0 -52.5 29t-15.5 63zM1163 1411q2 14 12.5 30.5t23.5 30t29.5 23t32.5 9.5q100 -1 82 -97q-14 -88 -108 -88q-35 0 -56.5 29 t-15.5 63z" />
<glyph unicode="&#x2c6;" horiz-adv-x="548" d="M139 758q2 27 74 67q23 10 115 131q88 113 168 113q74 0 114 -86l35 -86q4 -10 5 -18.5t5 -18.5q0 -2 9.5 -11t21.5 -26q6 -6 11 -10t14 -12q53 -61 49 -88q-8 -49 -70 -49q-88 0 -135 69q-18 27 -49 127v-2q-14 49 -23 49q-18 0 -47 -43q-27 -41 -48 -68.5t-32 -37.5 q-63 -68 -159 -68q-23 0 -42.5 22.5t-15.5 45.5z" />
<glyph unicode="&#x2dc;" horiz-adv-x="751" d="M233 764q12 59 82 131q74 76 131 76q59 0 105 -84q16 -33 28.5 -49.5t24.5 -16.5q37 0 53 43q39 78 84 78q37 0 52.5 -19.5t9.5 -52.5q-4 -29 -26.5 -61.5t-57.5 -67.5q-72 -66 -127 -65q-68 0 -109 84q-31 63 -55 63q-37 0 -59 -49q-16 -41 -34 -61.5t-40 -20.5 q-74 0 -62 72z" />
<glyph unicode="&#x2000;" horiz-adv-x="1009" />
<glyph unicode="&#x2001;" horiz-adv-x="2019" />
<glyph unicode="&#x2002;" horiz-adv-x="1009" />
<glyph unicode="&#x2003;" horiz-adv-x="2019" />
<glyph unicode="&#x2004;" horiz-adv-x="673" />
<glyph unicode="&#x2005;" horiz-adv-x="504" />
<glyph unicode="&#x2006;" horiz-adv-x="336" />
<glyph unicode="&#x2007;" horiz-adv-x="336" />
<glyph unicode="&#x2008;" horiz-adv-x="252" />
<glyph unicode="&#x2009;" horiz-adv-x="403" />
<glyph unicode="&#x200a;" horiz-adv-x="112" />
<glyph unicode="&#x2010;" horiz-adv-x="1128" d="M276 248l15 31q18 37 42.5 71.5t61.5 34.5h584q35 0 41 -20l-2 -21q-10 -16 -18.5 -31.5t-14.5 -25.5q-47 -74 -92 -74h-574q-37 0 -43 35z" />
<glyph unicode="&#x2011;" horiz-adv-x="1128" d="M276 248l15 31q18 37 42.5 71.5t61.5 34.5h584q35 0 41 -20l-2 -21q-10 -16 -18.5 -31.5t-14.5 -25.5q-47 -74 -92 -74h-574q-37 0 -43 35z" />
<glyph unicode="&#x2012;" horiz-adv-x="1128" d="M276 248l15 31q18 37 42.5 71.5t61.5 34.5h584q35 0 41 -20l-2 -21q-10 -16 -18.5 -31.5t-14.5 -25.5q-47 -74 -92 -74h-574q-37 0 -43 35z" />
<glyph unicode="&#x2013;" horiz-adv-x="974" d="M150 315q12 66 59 66h682q55 0 41 -82q-12 -74 -66 -74h-671q-61 0 -45 90z" />
<glyph unicode="&#x2014;" horiz-adv-x="1902" d="M152 309q12 72 59 72h1599q53 0 39 -82q-12 -74 -67 -74h-1592q-55 0 -38 84z" />
<glyph unicode="&#x2018;" horiz-adv-x="653" d="M391 1118q0 25 4 47q25 139 228 371l14 10q8 8 18 8t17 -10l12 -24q-4 -23 -21.5 -61t-41.5 -85q-23 -41 -37.5 -76.5t-18.5 -64.5q-2 -6 -1 -24.5t5 -39.5q2 -18 3 -37.5t-3 -35.5q-2 -14 -13 -33t-26.5 -34t-33 -26.5t-33.5 -11.5q-51 0 -66 78v-2q-6 27 -6 51z" />
<glyph unicode="&#x2019;" horiz-adv-x="622" d="M403 963q0 4 3.5 9t7.5 13q4 4 9 15.5t15 31.5v-2q72 135 84 219q2 6 3 24.5t-3 39.5q-6 37 0 67q2 14 13.5 34t27 36t33.5 27.5t35 11.5q51 0 63 -76q4 -29 4 -53q0 -25 -4 -45q-14 -76 -70.5 -168t-154.5 -203l-14 -10q-20 -18 -35 0l-10 12q-6 6 -7 17z" />
<glyph unicode="&#x201a;" horiz-adv-x="516" d="M80 -229q154 201 174 329q2 6 1 11.5t-1 15.5t1 21.5t3 21.5q2 16 16.5 36.5t34 38t40 30t36.5 12.5q37 0 47 -32.5t0 -98.5q-8 -41 -40 -102.5t-87 -135.5q-53 -74 -104 -124t-92 -68q-35 10 -29 45z" />
<glyph unicode="&#x201c;" horiz-adv-x="919" d="M475 1118q0 25 4 47q12 70 68.5 163t159.5 208l14 10q18 18 33 -2l12 -24q-10 -49 -64 -148v2q-49 -86 -57 -141q-2 -6 0 -24.5t4 -39.5l7 -31.5t-3 -41.5q-2 -14 -14 -33t-28.5 -34t-35 -26.5t-32.5 -11.5q-57 0 -64 78v-2q-4 27 -4 51zM715 1114q0 25 4 51 q27 150 227 371l15 10q18 18 32 0l11 -12q0 -2 3 -8t1 -10q0 -2 -3.5 -8.5t-7.5 -10.5q-2 -6 -7 -17.5t-15 -31.5v2q-70 -131 -86 -219q-2 -8 0 -25.5t2 -38.5q4 -16 4 -34t-2 -35q-4 -14 -15.5 -32.5t-26.5 -35t-33.5 -28t-33.5 -11.5q-53 0 -67 78q-2 23 -2 45z" />
<glyph unicode="&#x201d;" horiz-adv-x="929" d="M410 963q0 2 8 22q4 4 9 15.5t13 31.5v-2q35 66 57.5 121t28.5 98q2 6 2 25q0 18 -4 39q-2 16 -3 34.5t3 32.5q2 14 13.5 34t28 36t34.5 27.5t35 11.5q49 0 61 -76q4 -29 4 -53q0 -25 -4 -45q-29 -152 -225 -371l-14 -10q-20 -18 -35 0l-8 12q-2 2 -3 7t-1 10zM649 961 q8 23 23.5 59.5t38.5 83.5q51 86 59 141q-2 0 -3 20.5t-3 41.5q-6 39 0 77q2 14 14.5 33t28.5 34t34.5 26.5t32.5 11.5q27 0 43.5 -18.5t18.5 -57.5l-2 2q6 -29 7 -53t-3 -47q-12 -72 -69.5 -164t-155.5 -207l-15 -10q-10 -10 -21 -7t-15 15z" />
<glyph unicode="&#x201e;" horiz-adv-x="784" d="M139 -229q78 98 124 181t56 148q2 6 0 11.5t-2 15.5t1 21.5t4 21.5q2 16 16 36.5t32.5 38t39 30t36.5 12.5q70 0 50 -131q-8 -41 -41 -102.5t-86 -135.5q-55 -76 -106.5 -127t-90.5 -70q-39 12 -33 50zM381 -229q150 193 178 325q-2 2 -1 13.5t-1 17.5q-2 10 -1 21.5 t3 21.5q2 14 16.5 34.5t34 39t40 31t36.5 12.5q71 0 51 -131q-14 -76 -127 -238q-113 -156 -196 -192q-16 4 -26.5 14t-6.5 31z" />
<glyph unicode="&#x2022;" horiz-adv-x="1110" d="M389 463q8 47 34 89t63.5 74.5t83.5 51t94 18.5q49 0 88 -18.5t64.5 -51t36.5 -74.5t3 -89q-8 -49 -33.5 -92t-63.5 -75t-83 -51.5t-94 -19.5q-47 0 -87 19.5t-66 51.5t-37 75t-3 92z" />
<glyph unicode="&#x2026;" horiz-adv-x="1159" d="M176 100q18 106 115 107q18 0 32.5 -10.5t23.5 -25.5t13 -35t2 -36q-18 -115 -106 -114q-98 0 -80 114zM467 100q18 106 113 107q37 0 59 -36t16 -71q-18 -115 -106 -114q-100 0 -82 114zM793 100q18 106 114 107q37 0 59.5 -36t16.5 -71q-18 -115 -106 -114 q-102 0 -84 114z" />
<glyph unicode="&#x202f;" horiz-adv-x="403" />
<glyph unicode="&#x2039;" horiz-adv-x="526" d="M190 469q8 43 35 67.5t60 45.5q4 4 12 8l369 291q10 6 21 5t15 -12q9 -20 3 -53q-8 -57 -76 -121l-238 -223q6 -10 15.5 -26.5t13.5 -30.5q10 -18 17 -39t16 -39q45 -104 34 -160q-4 -25 -15 -44t-28 -38q-10 -10 -22 -10t-16 10q-221 338 -216 369z" />
<glyph unicode="&#x203a;" horiz-adv-x="526" d="M143 152q12 66 76 122v-2q55 55 107.5 105.5t107.5 105.5q-25 55 -51.5 111.5t-50.5 110.5q-16 39 -6 90q4 23 14 42t25 40q10 12 21 11t20 -11l190 -287l6 -8q14 -16 26.5 -37.5t6.5 -52.5q-6 -41 -33 -66t-57 -43q-4 -2 -8.5 -4t-6.5 -6l-344 -275q-10 -10 -22 -8 t-17 12q-8 20 -4 50z" />
<glyph unicode="&#x205f;" horiz-adv-x="504" />
<glyph unicode="&#x20ac;" horiz-adv-x="1150" d="M108.5 494.5q-4.5 11.5 4.5 23.5l47 74q2 6 10 10t12 4h35q6 29 14.5 53.5t18.5 53.5h-80q-16 0 -21.5 10t5.5 22l45 70q2 6 10 11t12 5h82q47 109 107.5 200t140.5 175q102 109 203.5 160t203.5 51q72 0 123.5 -31.5t79.5 -91.5q41 -100 17 -247q-4 -18 -15.5 -40 t-27 -40.5t-34 -31.5t-32.5 -13q-61 0 -37 131q37 225 -94 225q-78 0 -154.5 -41t-148.5 -119q-53 -59 -99.5 -131t-82.5 -156h514q16 0 20 -10t-4 -22l-45 -72q-2 -4 -10 -9t-15 -5h-510q-10 -29 -17 -53.5t-15 -53.5h481q14 0 18 -10t-2 -23l-45 -73q-4 -6 -12 -11.5 t-14 -5.5h-449q-10 -86 -5 -150.5t24 -123.5q51 -150 208 -150q55 0 108.5 19.5t109.5 54.5q98 76 157 182v-4q4 6 4 11q0 4 4 10l-4 -2q8 14 20.5 38.5t26.5 53.5h-4q49 102 97 102q37 0 55 -34.5t12 -73.5q-10 -53 -69 -129q-285 -371 -510 -371q-127 0 -213 48t-133 134 q-35 74 -48.5 173.5t2.5 211.5h-61q-16 0 -20.5 11.5z" />
<glyph unicode="&#x2122;" horiz-adv-x="2187" d="M766 1499l25 111q4 25 28 24h574q25 0 20 -24l-18 -111q-6 -25 -29 -24h-201l-125 -709q-4 -25 -26 -25h-127q-25 0 -21 25l125 709h-205q-27 0 -20 24zM1360 766l147 844q4 25 27 24h201q16 0 20 -16l84 -522q66 131 134.5 260t135.5 262q4 16 25 16h201q25 0 20 -24 l-145 -844q-4 -25 -29 -25h-125q-25 0 -20 25l92 551q-68 -137 -141.5 -278.5t-139.5 -278.5q-10 -18 -26 -19h-88q-16 0 -17 19l-90 557l-96 -551q-4 -25 -29 -25h-123q-23 0 -18 25z" />
<glyph unicode="&#xe000;" horiz-adv-x="583" d="M0 0v584h584v-584h-584z" />
</font>
</defs>
</svg>
